2 сезон

iTunes

1 сезон

1

iTunes

iTunes

iTunes

1 сезон

RePack

30

ИГРА 18+

pack

ВАЖНО

!!Акция!!

Alien_RageХит недели

RePack

MK11
pack

Забери бонус

RePack

jed

!!Акция!!

Alien_Rage

RePack

fifa19

RePack

Assassins Creed: Odyssey

RePack

NEED FOR SPEED™ PAYBACK

4 сезон

9 сезон

Бесстыжие 9 сезон

Все сериалы

все сериалы на PB.wtf

RePack

FAR CRY 5
  

Племяшка / Серии 1-4 из 4 (Александр Итыгилов мл.) [2014, Россия, мелодрама, детектив, WEB-DL 720p) pb.wtf

Племяшка через торрент pb.wtf

Размер: 2.42 GB | Добавлен: 5 лет 9 мес. назад | Торрент скачан:425 раз
Скачать  

02-01-2015 04:10 Племяшка Скачать торрент  

Племяшка
«Найти, чтобы вернуть»


  • Год выпуска: 2014
  • Страна: Россия
  • Жанр: мелодрама, детектив
  • Продолжительность: 00:44:06 (Серия)
  • Перевод: Не требуется

  • Режиссер: Александр Итыгилов мл.
  • В ролях:

    Дарья Плахтий, Анатолий Котенёв, Михаил Пшеничный, Евгений Пронин, Елена Мисюра, Александр Итыгилов мл.

  • Описание:
    Фильм о событии, перевернувшем благополучную жизнь семьи Шалимовых: крупного бизнесмена и чиновника Юрия, его жены Людмилы, сына Дмитрия и дочки Татьяны. Некогда Шалимовы-старшие цинично отвергли невесту сына - провинциальную девушку Юлю, уготовив ему в жены Олю Гладышеву, дочь друзей и компаньонов. Спешный отъезд Юли, ожидавшей, как оказалось, ребенка от Шалимова-младшего, перевернул и поломал жизнь семьи, перечеркнув все планы Диминых родителей. Не смирившись с потерей любимой, Дима поехал на поиски сбежавшей девушки, и вскоре погиб в автомобильной аварии. Людмила Шалимова пережила сына всего на год, скончавшись от рака. Подкосило случившееся и Юрия Шалимова, но он продолжил работу, и максимально постарался оградить от потрясений 15-летнюю на тот момент Таню, учившуюся в Англии. И вот, по прошествии семи лет с тех роковых событий, Шалимов попадает в больницу и понимает, что дни его, возможно, уже сочтены. Спешно вызванную из Англии Таню, перспективного дизайнера одежды, отец просит об одолжении. Точнее, это просьба, которая может оказаться судьбоносной для некогда мощной семьи Шалимовых. Таня должна отыскать Юлю и её ребенка, продолжение погибшего Димки, продолжение рода! Юрий Шалимов даже не знает, кто у него родился 7 лет назад, внук или внучка. Таня начинает поиски «племяшки». Она не знает, что, чуя слабость одряхлевшего льва Шалимова, множество стервятников уже готовы разодрать его империю на части, и ни Таня, ни таинственный малолетний «наследник» им не нужны...
  • Рейтинг:



  • Качество: WEB-DL 720p
  • Формат: :MKV
  • Видео кодек: AVC
  • Аудио кодек: AC3
  • Видео: 1280x720 (16:9), 1800 kbps, 50 fps, 0,039 bpp
  • Аудио: русский / 2.0 / 44 kHz / 192 kbps / 16 bit ||
  • Релиз от: GEKADOL

    Код:

    General
    Unique ID                                : 212120878741238867652813796439455074026 (0x9F94FEC6B8B078F8B8B41ACACDC286EA)
    Complete name                            : I:\Plemyashka.2014.WEB-DL (720p).tahiy\04.Plemyashka.2014.tahiy.mkv
    Format                                   : Matroska
    Format version                           : Version 4 / Version 2
    File size                                : 628 MiB
    Duration                                 : 44mn 6s
    Overall bit rate                         : 1 991 Kbps
    Movie name                               : Plemyashka.2014.tahiy
    Encoded date                             : UTC 2014-12-06 13:43:12
    Writing application                      : mkvmerge v6.6.0 ('The Edge Of The In Between') built on Dec  1 2013 17:55:00
    Writing library                          : libebml v1.3.0 + libmatroska v1.4.1

    Video
    ID                                       : 1
    Format                                   : AVC
    Format/Info                              : Advanced Video Codec
    Format profile                           : High@L3.1
    Format settings, CABAC                   : Yes
    Format settings, ReFrames                : 3 frames
    Codec ID                                 : V_MPEG4/ISO/AVC
    Duration                                 : 44mn 6s
    Bit rate                                 : 1 800 Kbps
    Width                                    : 1 280 pixels
    Height                                   : 720 pixels
    Display aspect ratio                     : 16:9
    Frame rate                               : 50.000 fps
    Original frame rate                      : 25.000 fps
    Color space                              : YUV
    Chroma subsampling                       : 4:2:0
    Bit depth                                : 8 bits
    Scan type                                : Progressive
    Bits/(Pixel*Frame)                       : 0.039
    Stream size                              : 555 MiB (88%)
    Title                                    : Plemyashka.2014.tahiy
    Writing library                          : x264 core 142 r2431 ac76440
    Encoding settings                        : cabac=1 / ref=3 / deblock=1:0:0 / analyse=0x3:0x133 / me=umh / subme=7 / psy=1 / psy_rd=1.00:0.00 / mixed_ref=1 / me_range=32 / chroma_me=1 / trellis=2 / 8x8dct=1 / cqm=0 / deadzone=21,11 / fast_pskip=1 / chroma_qp_offset=-2 / threads=12 / lookahead_threads=2 / sliced_threads=0 / nr=0 / decimate=1 / interlaced=0 / bluray_compat=0 / constrained_intra=0 / bframes=0 / weightp=0 / keyint=75 / keyint_min=26 / scenecut=40 / intra_refresh=0 / rc_lookahead=50 / rc=2pass / mbtree=0 / bitrate=1800 / ratetol=1.0 / qcomp=0.20 / qpmin=10 / qpmax=51 / qpstep=4 / cplxblur=20.0 / qblur=0.5 / vbv_maxrate=2000 / vbv_bufsize=2000 / nal_hrd=none / filler=0 / ip_ratio=1.40 / aq=1:1.00
    Language                                 : Russian
    Default                                  : Yes
    Forced                                   : No
    Color primaries                          : BT.709-5, BT.1361, IEC 61966-2-4, SMPTE RP177
    Transfer characteristics                 : BT.709-5, BT.1361
    Matrix coefficients                      : BT.709-5, BT.1361, IEC 61966-2-4 709, SMPTE RP177

    Audio
    ID                                       : 2
    Format                                   : AC-3
    Format/Info                              : Audio Coding 3
    Mode extension                           : CM (complete main)
    Codec ID                                 : A_AC3
    Duration                                 : 44mn 6s
    Bit rate mode                            : Constant
    Bit rate                                 : 192 Kbps
    Channel(s)                               : 2 channels
    Channel positions                        : Front: L R
    Sampling rate                            : 44.1 KHz
    Bit depth                                : 16 bits
    Compression mode                         : Lossy
    Stream size                              : 60.6 MiB (10%)
    Language                                 : Russian
    Default                                  : Yes
    Forced                                   : No


    Скриншоты:



    pb.wtf



  • Скачать Племяшка через торрент http://i68.fastpic.ru/big/2015/0102/4e/a2497e75440aac8d2527c139b73a934e.jpg Скачать фильм Племяшка через торрент бесплантно в хорошем качестве Описание: Фильм о событии, перевернувшем благополучную жизнь семьи Шалимовых: крупного бизнесмена и чиновника Юрия, его жены Людмилы, сына ... 9.4 10 17
    Торрент: Зарегистрирован [2015-01-02 04:10] · скачан: 425 раз
    Статус: √ проверено
    Размер: 2.42 GB
    Как cкачать? Как скачать Племяшка через торрент | qTorrent

    28-11-2019 20:33  

    Отключить всю рекламу на сайте

      Дорогой пользователь! Огромная просьба, поблагодарите релизера, оцените раздачу и оставьте свои комментарий, если Вы скачали Племяшка через торрент бесплатно! Внесите свою лепту в развитие PiratBit!
      Комментировать посты могут только пользователи прошедшие не сложную регистрацию
      Показать сообщения:    

      Племяшка через торрент
      Скачать бесплатно Племяшка
      Племяшка скачать торрент
      Племяшка смотреть онлайн
      Cкачать фильм Племяшка бесплатно
      Племяшка скачать торрент в хорошем качестве
      Племяшка смотреть онлайн бесплатно в хорошем качестве


      Вы не можете начинать темы
      Вы не можете отвечать на сообщения
      Вы не можете редактировать свои сообщения
      Вы не можете удалять свои сообщения
      Вы не можете голосовать в опросах
      Вы не можете прикреплять файлы к сообщениям
      Вы можете скачивать файлы