Ссылка на приватное зеркало нашего сайта всего за 1$. Внимание количество ограничено!!!

2 сезон

iTunes

1 сезон

1

iTunes

iTunes

iTunes

1 сезон

RePack

30

ИГРА 18+

pack

ВАЖНО

!!Акция!!

Alien_RageХит недели

RePack

MK11
pack

Забери бонус

RePack

jed

!!Акция!!

Alien_Rage

RePack

fifa19

RePack

Assassins Creed: Odyssey

RePack

NEED FOR SPEED™ PAYBACK

4 сезон

9 сезон

Бесстыжие 9 сезон

Все сериалы

все сериалы на PB.wtf

RePack

FAR CRY 5
  

Париж, Техас / Paris, Texas (Вим Вендерс) [1984, драма, BDRip 1080p] DUB, MVO pb.wtf

Париж, Техас через торрент pb.wtf

Размер: 18.36 GB | Добавлен: 5 лет 9 мес. назад | Торрент скачан:8 раз
Скачать  

02-01-2015 06:30 Париж, Техас Скачать торрент  

Париж, Техас / Paris, Texas

Год выпуска: 1984
Страна: Германия (ФРГ), Франция, Великобритания, США
Жанр: драма
Продолжительность: 02:24:49
Перевод: дублированный, профессиональный многоголосый
Субтитры: русские

Режиссёр: Вим Вендерс

В ролях: Гарри Дин Стэнтон, Дин Стокуэлл, Настасья Кински, Сэм Берри, Бернхард Викки, Аврора Клеман, Клэреси Мобли, Хантер Карсон, Вива, Сокорро Валдез

Описание: Идущий ниоткуда Трэвис знает, что у него есть семья, но не знает, что с момента его исчезновения прошло четыре года. Неистовые поиски себя в глухой американской глубинке сопровождаются гипнотической музыкой Рая Кудера. Его звезда по-настоящему взошла именно над городком Парижем в штате Техас...



Качество: BDRip 1080p Сравнение с исходником
Формат: MKV
Видео кодек: H.264
Аудио кодек: AC3
Видео: 15.7 Mбит/с, 1920x1080, 23.976 кадра/с, 0.316 bpp
Аудио 1: русский, AC3, 192 kbps, 2 ch, 48 kHz [дублированный]
Аудио 2: русский, AC3, 192 kbps, 2 ch, 48 kHz [профессиональный многоголосый, Кармен видео]
Аудио 3: английский, AC3, 192 kbps, 2 ch, 48 kHz [комментарий]
Аудио 4: английский, DTS, 1509 kbps, 6 ch, 48 kHz [оригинал]
Золотой глобус, 1985 год
Номинации (1):
Лучший иностранный фильм — «Франция, Германия (ФРГ)»

Британская академия, 1985 год
Победитель (1):
Лучший режиссер (Вим Вендерс)

Номинации (3):
Лучший фильм
Лучший адаптированный сценарий
Лучший саундтрек

Сезар, 1985 год
Номинации (1):
Лучший фильм на иностранном языке

Каннский кинофестиваль, 1984 год
Победитель (3):
Золотая пальмовая ветвь
Приз международной ассоциации кинокритиков (ФИПРЕССИ)
Приз экуменического (христианского) жюри
Общее
Уникальный идентификатор : 208359648069295377861181812493707486444 (0x9CC09BC9664D0551A0602755D31DA4EC)
Полное имя : D:VideoParis,Texas.1984.BDRip.1080p.mkv
Формат : Matroska
Версия формата : Version 4 / Version 2
Размер файла : 18,4 Гбайт
Продолжительность : 2 ч. 24 м.
Общий поток : 18,2 Мбит/сек
Дата кодирования : UTC 2015-01-02 03:11:47
Программа кодирования : mkvmerge v7.4.0 ('Circles') 64bit built on Dec 12 2014 12:19:56
Библиотека кодирования : libebml v1.3.0 + libmatroska v1.4.1
_STATISTICS_WRITING_APP : mkvmerge v7.4.0 ('Circles') 64bit built on Dec 12 2014 12:19:56
_STATISTICS_WRITING_DATE_UTC : 2015-01-02 03:11:47
_STATISTICS_TAGS : BPS DURATION NUMBER_OF_FRAMES NUMBER_OF_BYTES
DURATION : 02:24:49.718000000
NUMBER_OF_FRAMES : 814661
NUMBER_OF_BYTES : 1639097932

Видео
Идентификатор : 1
Формат : AVC
Формат/Информация : Advanced Video Codec
Профиль формата : High@L4.1
Параметр CABAC формата : Да
Параметр ReFrames формата : 4 кадра
Идентификатор кодека : V_MPEG4/ISO/AVC
Продолжительность : 2 ч. 24 м.
Битрейт : 15,7 Мбит/сек
Ширина : 1920 пикселей
Высота : 1080 пикселей
Соотношение сторон : 16:9
Режим частоты кадров : Постоянный
Частота кадров : 23,976 кадра/сек
Цветовое пространство : YUV
Субдискретизация насыщенности : 4:2:0
Битовая глубина : 8 бит
Тип развёртки : Прогрессивная
Бит/(Пиксели*Кадры) : 0.316
Размер потока : 15,9 Гбайт (87%)
Заголовок : BDRip -- STarankov
Библиотека кодирования : x264 core 142 r2431 ac76440
Настройки программы : cabac=1 / ref=4 / deblock=1:-1:-1 / analyse=0x3:0x113 / me=umh / subme=10 / psy=1 / psy_rd=1.00:0.15 / mixed_ref=1 / me_range=32 / chroma_me=1 / trellis=2 / 8x8dct=1 / cqm=0 / deadzone=21,11 / fast_pskip=1 / chroma_qp_offset=-3 / threads=6 / lookahead_threads=1 / sliced_threads=0 / nr=0 / decimate=1 / interlaced=0 / bluray_compat=0 / constrained_intra=0 / bframes=8 / b_pyramid=2 / b_adapt=2 / b_bias=0 / direct=3 / weightb=1 / open_gop=0 / weightp=2 / keyint=230 / keyint_min=23 / scenecut=40 / intra_refresh=0 / rc_lookahead=40 / rc=crf / mbtree=0 / crf=19.5 / qcomp=0.60 / qpmin=0 / qpmax=69 / qpstep=4 / vbv_maxrate=40000 / vbv_bufsize=50000 / crf_max=0.0 / nal_hrd=none / filler=0 / ip_ratio=1.40 / pb_ratio=1.30 / aq=1:1.00
Язык : English
Default : Да
Forced : Нет
DURATION : 02:24:49.681000000
NUMBER_OF_FRAMES : 208344
NUMBER_OF_BYTES : 17449992539
_STATISTICS_WRITING_APP : mkvmerge v7.4.0 ('Circles') 64bit built on Dec 12 2014 12:19:56
_STATISTICS_WRITING_DATE_UTC : 2015-01-02 03:11:47
_STATISTICS_TAGS : BPS DURATION NUMBER_OF_FRAMES NUMBER_OF_BYTES

Аудио #1
Идентификатор : 2
Формат : AC-3
Формат/Информация : Audio Coding 3
Расширение режима : CM (complete main)
Параметр Endianness формата : Big
Идентификатор кодека : A_AC3
Продолжительность : 2 ч. 24 м.
Вид битрейта : Постоянный
Битрейт : 192 Кбит/сек
Каналы : 2 канала
Расположение каналов : Front: L R
Частота : 48,0 КГц
Битовая глубина : 16 бит
Метод сжатия : С потерями
Размер потока : 199 Мбайт (1%)
Заголовок : DUB
Язык : Russian
Default : Да
Forced : Нет

Аудио #2
Идентификатор : 3
Формат : AC-3
Формат/Информация : Audio Coding 3
Расширение режима : CM (complete main)
Параметр Endianness формата : Big
Идентификатор кодека : A_AC3
Продолжительность : 2 ч. 24 м.
Вид битрейта : Постоянный
Битрейт : 192 Кбит/сек
Каналы : 2 канала
Расположение каналов : Front: L R
Частота : 48,0 КГц
Битовая глубина : 16 бит
Метод сжатия : С потерями
Размер потока : 199 Мбайт (1%)
Заголовок : MVO (Кармен видео)
Язык : Russian
Default : Нет
Forced : Нет

Аудио #3
Идентификатор : 4
Формат : AC-3
Формат/Информация : Audio Coding 3
Расширение режима : CM (complete main)
Параметр Endianness формата : Big
Идентификатор кодека : A_AC3
Продолжительность : 2 ч. 24 м.
Вид битрейта : Постоянный
Битрейт : 192 Кбит/сек
Каналы : 2 канала
Расположение каналов : Front: L R
Частота : 48,0 КГц
Битовая глубина : 16 бит
Метод сжатия : С потерями
Размер потока : 199 Мбайт (1%)
Заголовок : Commentary
Язык : English
Default : Нет
Forced : Нет

Аудио #4
Идентификатор : 5
Формат : DTS
Формат/Информация : Digital Theater Systems
Режим : 16
Параметр Endianness формата : Big
Идентификатор кодека : A_DTS
Продолжительность : 2 ч. 24 м.
Вид битрейта : Постоянный
Битрейт : 1509 Кбит/сек
Каналы : 6 каналов
Расположение каналов : Front: L C R, Side: L R, LFE
Частота : 48,0 КГц
Битовая глубина : 24 бит
Метод сжатия : С потерями
Размер потока : 1,53 Гбайт (8%)
Заголовок : Original
Язык : English
Default : Нет
Forced : Нет

Текст
Идентификатор : 6
Формат : UTF-8
Идентификатор кодека : S_TEXT/UTF8
Идентификатор кодека/Информация : UTF-8 Plain Text
Заголовок : русский
Язык : Russian
Default : Нет
Forced : Нет
pb.wtf



Скачать Париж, Техас через торрент http://i63.fastpic.ru/big/2015/0101/05/5e9494d78ed8f96bed2a563cba667a05.jpg Скачать фильм Париж, Техас через торрент бесплантно в хорошем качестве Описание: Идущий ниоткуда Трэвис знает, что у него есть семья, но не знает, что с момента его исчезновения прошло четыре года. Неистовые ... 7.5 10 2
Торрент: Зарегистрирован [2015-01-02 06:30] · скачан: 8 раз
Статус: √ проверено
Размер: 18.36 GB
Как cкачать? Как скачать Париж, Техас через торрент | qTorrent

% Раздел Тема Автор DL S | L
Фильмы до 2000 г. [ 2.18 GB ] Париж Техас / Paris Texas [1984 г BDRip] DUB MVO koenig Скачать
1 | 0
Фильмы [HD 720p, 1080p] (Хороший звук DUB, MVO) [ 7.93 GB ] Париж Техас / Paris Texas [1984 BDRip 720p] DUB MVO msltel Скачать
1 | 0

28-11-2019 20:33  

Отключить всю рекламу на сайте

    Дорогой пользователь! Огромная просьба, поблагодарите релизера, оцените раздачу и оставьте свои комментарий, если Вы скачали Париж, Техас через торрент бесплатно! Внесите свою лепту в развитие PiratBit!
    Комментировать посты могут только пользователи прошедшие не сложную регистрацию
    Показать сообщения:    

    Париж, Техас через торрент
    Скачать бесплатно Париж, Техас
    Париж, Техас скачать торрент
    Париж, Техас смотреть онлайн
    Cкачать фильм Париж, Техас бесплатно
    Париж, Техас скачать торрент в хорошем качестве
    Париж, Техас смотреть онлайн бесплатно в хорошем качестве


    Вы не можете начинать темы
    Вы не можете отвечать на сообщения
    Вы не можете редактировать свои сообщения
    Вы не можете удалять свои сообщения
    Вы не можете голосовать в опросах
    Вы не можете прикреплять файлы к сообщениям
    Вы можете скачивать файлы