Ссылка на приватное зеркало нашего сайта всего за 1$. Внимание количество ограничено!!!

2 сезон

iTunes

1 сезон

1

iTunes

iTunes

iTunes

1 сезон

RePack

30

ИГРА 18+

pack

ВАЖНО

!!Акция!!

Alien_RageХит недели

RePack

MK11
pack

Забери бонус

RePack

jed

!!Акция!!

Alien_Rage

RePack

fifa19

RePack

Assassins Creed: Odyssey

RePack

NEED FOR SPEED™ PAYBACK

4 сезон

9 сезон

Бесстыжие 9 сезон

Все сериалы

все сериалы на PB.wtf

RePack

FAR CRY 5
  

Убьём жену Уорда / Let's Kill Ward's Wife (Скотт Фоули / Scott Foley) [2014, США, комедия, HDRip, Любительский (одноголосый) [Pashaup] pb.wtf

Убьём жену Уорда через торрент pb.wtf

Размер: 1.08 GB | Добавлен: 5 лет 9 мес. назад | Торрент скачан:460 раз
Скачать  

03-01-2015 02:51 Убьём жену Уорда Скачать торрент  

Убьём жену Уорда / Let's Kill Ward's Wife


  • Год выпуска: 2014
  • Страна: США
  • Жанр: комедия
  • Продолжительность: 01:22:19
  • Перевод: Любительский (одноголосый) [Pashaup]

  • Режиссер: Скотт Фоули / Scott Foley
  • В ролях:

    Патрик Уилсон (David), Скотт Фоули (Tom), Дональд Фэйсон (Ward), Джеймс Карпинелло (Ronnie), Эми Акер (Geena), Марика Доминчик (Amanda), Дагмара Доминчик (Stacy), Николетт Шеридан (Robin Peters), Грег Гранберг (Bruce), Вероника Доминчик (Barrista), Дженнифер МакКомб (Mom), Джанин Хэррингтон (Cute Runner Girl)

  • Описание:
    Жена Уорда - настоящая стерва. Все об этом знают. В том числе и сам Уорд. После многочисленных размышлений и разговоров Уорда с друзьями на эту тему происходит случайное происшествие, которое открывает перед ним новый мир проблем и возможностей...
  • Рейтинг:



  • Качество: HDRip
  • Формат: :AVI
  • Видео кодек: XviD
  • Аудио кодек: AC3
  • Видео: 720x304 (2.35:1), 1679 kbps, 23,976 fps, 0,320 bpp
  • Аудио: 2.0 / 48 kHz / 192 kbps / 16 bit
  • Релиз от: GEKADOL

    Код:

    General
    Complete name                            : I:\Lets.Kill.Wards.Wife.2014.avi
    Format                                   : AVI
    Format/Info                              : Audio Video Interleave
    File size                                : 1.08 GiB
    Duration                                 : 1h 22mn
    Overall bit rate                         : 1 881 Kbps
    Writing application                      : VirtualDubMod 1.5.10.2 (build 2540/release)
    Writing library                          : VirtualDubMod build 2540/release

    Video
    ID                                       : 0
    Format                                   : MPEG-4 Visual
    Format profile                           : Advanced Simple@L5
    Format settings, BVOP                    : 2
    Format settings, QPel                    : No
    Format settings, GMC                     : No warppoints
    Format settings, Matrix                  : Default (H.263)
    Muxing mode                              : Packed bitstream
    Codec ID                                 : XVID
    Codec ID/Hint                            : XviD
    Duration                                 : 1h 22mn
    Bit rate                                 : 1 679 Kbps
    Width                                    : 720 pixels
    Height                                   : 304 pixels
    Display aspect ratio                     : 2.35:1
    Frame rate                               : 23.976 fps
    Color space                              : YUV
    Chroma subsampling                       : 4:2:0
    Bit depth                                : 8 bits
    Scan type                                : Progressive
    Compression mode                         : Lossy
    Bits/(Pixel*Frame)                       : 0.320
    Stream size                              : 989 MiB (89%)
    Writing library                          : XviD 64

    Audio
    ID                                       : 1
    Format                                   : AC-3
    Format/Info                              : Audio Coding 3
    Mode extension                           : CM (complete main)
    Codec ID                                 : 2000
    Duration                                 : 1h 22mn
    Bit rate mode                            : Constant
    Bit rate                                 : 192 Kbps
    Channel(s)                               : 2 channels
    Channel positions                        : Front: L R
    Sampling rate                            : 48.0 KHz
    Bit depth                                : 16 bits
    Compression mode                         : Lossy
    Stream size                              : 113 MiB (10%)
    Alignment                                : Split accross interleaves
    Interleave, duration                     : 42 ms (1.00 video frame)
    Interleave, preload duration             : 500 ms


    Скриншоты:



    pb.wtf



  • Скачать Убьём жену Уорда через торрент http://i65.fastpic.ru/big/2015/0103/5d/68c07c03086585bfca834802a16abc5d.jpg Скачать фильм Убьём жену Уорда через торрент бесплантно в хорошем качестве Описание: Жена Уорда - настоящая стерва. Все об этом знают. В том числе и сам Уорд. После многочисленных размышлений и разговоров Уорда с ... 9.9 10 9
    Торрент: Зарегистрирован [2015-01-03 02:51] · скачан: 460 раз
    Статус: T временная
    Размер: 1.08 GB
    Как cкачать? Как скачать Убьём жену Уорда через торрент | qTorrent

    28-11-2019 20:33  

    Отключить всю рекламу на сайте

      Дорогой пользователь! Огромная просьба, поблагодарите релизера, оцените раздачу и оставьте свои комментарий, если Вы скачали Убьём жену Уорда через торрент бесплатно! Внесите свою лепту в развитие PiratBit!
      Комментировать посты могут только пользователи прошедшие не сложную регистрацию
      Показать сообщения:    

      Убьём жену Уорда через торрент
      Скачать бесплатно Убьём жену Уорда
      Убьём жену Уорда скачать торрент
      Убьём жену Уорда смотреть онлайн
      Cкачать фильм Убьём жену Уорда бесплатно
      Убьём жену Уорда скачать торрент в хорошем качестве
      Убьём жену Уорда смотреть онлайн бесплатно в хорошем качестве


      Вы не можете начинать темы
      Вы не можете отвечать на сообщения
      Вы не можете редактировать свои сообщения
      Вы не можете удалять свои сообщения
      Вы не можете голосовать в опросах
      Вы не можете прикреплять файлы к сообщениям
      Вы можете скачивать файлы