Ссылка на приватное зеркало нашего сайта всего за 1$. Внимание количество ограничено!!!

2 сезон

iTunes

1 сезон

1

iTunes

iTunes

iTunes

1 сезон

RePack

30

ИГРА 18+

pack

ВАЖНО

!!Акция!!

Alien_RageХит недели

RePack

MK11
pack

Забери бонус

RePack

jed

!!Акция!!

Alien_Rage

RePack

fifa19

RePack

Assassins Creed: Odyssey

RePack

NEED FOR SPEED™ PAYBACK

4 сезон

9 сезон

Бесстыжие 9 сезон

Все сериалы

все сериалы на PB.wtf

RePack

FAR CRY 5
  

Новогоднее дежурство / Серии 1-2 из 2 (Флюза Фархшатова) [2014, Россия, мелодрама, IPTVRip) pb.wtf

Новогоднее дежурство через торрент pb.wtf

Размер: 1.08 GB | Добавлен: 5 лет 9 мес. назад | Торрент скачан:330 раз
Скачать  

03-01-2015 03:32 Новогоднее дежурство Скачать торрент  

Новогоднее дежурство


  • Год выпуска: 2014
  • Страна: Россия
  • Жанр: мелодрама
  • Продолжительность: 00:48:19
  • Перевод: Не требуется

  • Режиссер: Флюза Фархшатова
  • В ролях:

    Евгения Добровольская, Петр Винс, Наталья Селезнёва, Игорь Ясулович, Сергей Марухин, Захар Кабанов, Алексей Онежин

  • Описание:
    Под Новый год Долгачев, отсидев шесть лет, вышел на свободу. Он твердо решил жить честно, но обстоятельства сложились так, что 31 декабря вечером ему пришлось пойти на последнее в жизни преступление.
    А Ирина - профессиональная патронажная сестра - собиралась встретить этот Новый год со своим женихом. Но оказалось, что он будет праздновать с совсем с другой женщиной.
    Судьба свела Долгачева и Ирину - таких разных людей - в доме бывшей актрисы музкомедии. Семидесятилетняя Агнесса Леопольдовна уже десять лет была прикована к инвалидному креслу и думала, что никогда не встанет на ноги. Но этот Новый год счастливо переменил судьбу всех троих.
  • Рейтинг:



  • Качество: IPTVRip
  • Формат: :AVI
  • Видео кодек: XviD
  • Аудио кодек: MP3
  • Видео: 720x400 (16:9), 1499 kbps, 25 fps, 0,208 bpp
  • Аудио: 2.0 / 48 kHz / 128 kbps /
  • Релиз от: GEKADOL

    Код:

    General
    Complete name                            : I:\Novogodnee.dezhurstvo.IPTVRip\Novogodnee.dezhurstvo.02.IPTVRip.avi
    Format                                   : AVI
    Format/Info                              : Audio Video Interleave
    File size                                : 567 MiB
    Duration                                 : 48mn 19s
    Overall bit rate                         : 1 641 Kbps

    Video
    ID                                       : 0
    Format                                   : MPEG-4 Visual
    Format profile                           : Advanced Simple@L5
    Format settings, BVOP                    : 2
    Format settings, QPel                    : No
    Format settings, GMC                     : No warppoints
    Format settings, Matrix                  : Default (H.263)
    Codec ID                                 : XVID
    Codec ID/Hint                            : XviD
    Duration                                 : 48mn 19s
    Bit rate                                 : 1 500 Kbps
    Width                                    : 720 pixels
    Height                                   : 400 pixels
    Display aspect ratio                     : 16:9
    Frame rate                               : 25.000 fps
    Color space                              : YUV
    Chroma subsampling                       : 4:2:0
    Bit depth                                : 8 bits
    Scan type                                : Progressive
    Compression mode                         : Lossy
    Bits/(Pixel*Frame)                       : 0.208
    Stream size                              : 518 MiB (91%)
    Writing library                          : XviD 1.2.1 (UTC 2008-12-04)

    Audio
    ID                                       : 1
    Format                                   : MPEG Audio
    Format version                           : Version 1
    Format profile                           : Layer 3
    Mode                                     : Joint stereo
    Mode extension                           : MS Stereo
    Codec ID                                 : 55
    Codec ID/Hint                            : MP3
    Duration                                 : 48mn 19s
    Bit rate mode                            : Constant
    Bit rate                                 : 128 Kbps
    Channel(s)                               : 2 channels
    Sampling rate                            : 48.0 KHz
    Compression mode                         : Lossy
    Stream size                              : 44.2 MiB (8%)
    Alignment                                : Aligned on interleaves
    Interleave, duration                     : 24 ms (0.60 video frame)
    Writing library                          : LAME3.99r
    Encoding settings                        : -m j -V 4 -q 9 -lowpass 17 -b 128


    Скриншоты:



    pb.wtf



  • Скачать Новогоднее дежурство через торрент http://i68.fastpic.ru/big/2015/0103/2a/152bf015dc42ed740c0684aea9683e2a.jpg Скачать фильм Новогоднее дежурство через торрент бесплантно в хорошем качестве Описание: Под Новый год Долгачев, отсидев шесть лет, вышел на свободу. Он твердо решил жить честно, но обстоятельства сложились так, что 31 ... 9.4 10 10
    Торрент: Зарегистрирован [2015-01-03 03:32] · скачан: 330 раз
    Статус: √ проверено
    Размер: 1.08 GB
    Как cкачать? Как скачать Новогоднее дежурство через торрент | qTorrent

    28-11-2019 20:33  

    Отключить всю рекламу на сайте

      Дорогой пользователь! Огромная просьба, поблагодарите релизера, оцените раздачу и оставьте свои комментарий, если Вы скачали Новогоднее дежурство через торрент бесплатно! Внесите свою лепту в развитие PiratBit!
      Комментировать посты могут только пользователи прошедшие не сложную регистрацию
      Показать сообщения:    

      Новогоднее дежурство через торрент
      Скачать бесплатно Новогоднее дежурство
      Новогоднее дежурство скачать торрент
      Новогоднее дежурство смотреть онлайн
      Cкачать фильм Новогоднее дежурство бесплатно
      Новогоднее дежурство скачать торрент в хорошем качестве
      Новогоднее дежурство смотреть онлайн бесплатно в хорошем качестве


      Вы не можете начинать темы
      Вы не можете отвечать на сообщения
      Вы не можете редактировать свои сообщения
      Вы не можете удалять свои сообщения
      Вы не можете голосовать в опросах
      Вы не можете прикреплять файлы к сообщениям
      Вы можете скачивать файлы