Всегда рабочее зеркало просто перед .vidak.icu напиши любое слово или цифру, Пример http://4c7.vidak.icu

>

7.4

iTunes

7.4

2 сезон

6.6

iTunes

1

7.4

2 сезон

7.2

iTunes

6.0

MVO

13

6.1

iTunes

8.3

Пиратка

30

ULTIMATE

pack

9.9

Лицензия

ВАЖНО

ИГРА 18+

pack

7.3

RePack

MK11

7.7

RePack

jed

7.8

RePack

fifa19

8.5

RePack

RDR2

RePack

NEED FOR SPEED™ PAYBACK

1 сезон

9 сезон

Бесстыжие 9 сезон

Все сериалы

все сериалы на PB.wtf

RePack

FAR CRY 5

Anonymous, добрый вечер, мы катастрофически не успеваем собрать деньги на оплату серверов, помогите нам пожалуйста 5,10,15р., для нас важна любая помощь . В качестве благодарности мы отключим Вам всю рекламу на сайте (укажите свой ник в строку Ваше имя)!

×
  
Magnet ссылка

Повелитель иллюзий / Lord of Illusions (Клайв Баркер) [1995, ужасы, триллер, детектив, BDRip 1080p] AVO / Режиссёрская версия pb.wtf

Повелитель иллюзий через торрент pb.wtf

Размер: 14.73 GB | Добавлен: 7 лет назад | Торрент скачан:15 раз
Смотреть онлайн Повелитель иллюзий | Скачать    Ребята, помогите собрать деньги на оплату серверов!!!

03-01-2015 06:02 Повелитель иллюзий Скачать торрент  

Повелитель иллюзий / Lord of Illusions

Год выпуска: 1995
Страна: США
Жанр: ужасы, триллер, детектив
Продолжительность: 02:01:34
Перевод: авторский
Субтитры: английские (для слабослышащих)

Режиссёр: Клайв Баркер

В ролях: Скотт Бакула, Кевин Дж. О’Коннор, Фамке Янссен, Винсент Скьявелли, Шила Таузи, Дэниэл фон Барген, Уэйн Грейс, Джозеф Лэтимор, Барбара Патрик, Джордан Мардер

Описание: Заурядное дело, которое расследует частный детектив Гарри, приобретает пугающий оборот, когда он сталкивается с тайной, окружающей всемирно знаменитого мага Филипа Свана и его красавицу жену Доротею. Гарри оказывается втянутым в чудовищный водоворот тайн, обмана и невообразимых ужасов. Иллюзия - трюк, но магия реальна...



Качество: BDRip 1080p Сравнение с исходником
Формат: MKV
Видео кодек: H.264
Аудио кодек: DTS
Видео: 12.5 Mбит/с, 1920x1040, 23.976 кадра/с, 0.261 bpp
Аудио 1: русский, DTS, 1509 kbps, 6 ch, 48 kHz [авторский, Андрей Гаврилов]
Аудио 2: русский, DTS, 1509 kbps, 6 ch, 48 kHz [авторский, Юрий Живов]
Аудио 3: английский, DTS, 1509 kbps, 6 ch, 48 kHz [оригинал]

Имеются неименованные главы/чаптеры.
Сатурн, 1996 год
Номинации (1):
Лучший фильм ужасов
Общее
Уникальный идентификатор : 234776817131704274330189766339841582973 (0xB0A05EC7CC7D4DB480F58104D2BD677D)
Полное имя : D:VideoPovelitel illjuzij.DirCut.1995.BDRip.1080p.mkv
Формат : Matroska
Версия формата : Version 4 / Version 2
Размер файла : 14,7 Гбайт
Продолжительность : 2 ч. 1 м.
Общий поток : 17,4 Мбит/сек
Дата кодирования : UTC 2015-01-03 03:18:25
Программа кодирования : mkvmerge v7.4.0 ('Circles') 64bit built on Dec 12 2014 12:19:56
Библиотека кодирования : libebml v1.3.0 + libmatroska v1.4.1
_STATISTICS_WRITING_APP : mkvmerge v7.4.0 ('Circles') 64bit built on Dec 12 2014 12:19:56
_STATISTICS_WRITING_DATE_UTC : 2015-01-03 03:18:25
_STATISTICS_TAGS : BPS DURATION NUMBER_OF_FRAMES NUMBER_OF_BYTES
DURATION : 02:01:34.027000000
NUMBER_OF_FRAMES : 683815
NUMBER_OF_BYTES : 1375835848

Видео
Идентификатор : 1
Формат : AVC
Формат/Информация : Advanced Video Codec
Профиль формата : High@L4.1
Параметр CABAC формата : Да
Параметр ReFrames формата : 4 кадра
Идентификатор кодека : V_MPEG4/ISO/AVC
Продолжительность : 2 ч. 1 м.
Битрейт : 12,5 Мбит/сек
Ширина : 1920 пикселей
Высота : 1040 пикселей
Соотношение сторон : 1,85:1
Режим частоты кадров : Постоянный
Частота кадров : 23,976 кадра/сек
Цветовое пространство : YUV
Субдискретизация насыщенности : 4:2:0
Битовая глубина : 8 бит
Тип развёртки : Прогрессивная
Бит/(Пиксели*Кадры) : 0.261
Размер потока : 10,6 Гбайт (72%)
Заголовок : BDRip -- STarankov
Библиотека кодирования : x264 core 142 r2431 ac76440
Настройки программы : cabac=1 / ref=4 / deblock=1:-1:-1 / analyse=0x3:0x113 / me=umh / subme=10 / psy=1 / psy_rd=1.00:0.15 / mixed_ref=1 / me_range=32 / chroma_me=1 / trellis=2 / 8x8dct=1 / cqm=0 / deadzone=21,11 / fast_pskip=1 / chroma_qp_offset=-3 / threads=6 / lookahead_threads=1 / sliced_threads=0 / nr=0 / decimate=1 / interlaced=0 / bluray_compat=0 / constrained_intra=0 / bframes=8 / b_pyramid=2 / b_adapt=2 / b_bias=0 / direct=3 / weightb=1 / open_gop=0 / weightp=2 / keyint=230 / keyint_min=23 / scenecut=40 / intra_refresh=0 / rc_lookahead=40 / rc=crf / mbtree=0 / crf=18.5 / qcomp=0.60 / qpmin=0 / qpmax=69 / qpstep=4 / vbv_maxrate=40000 / vbv_bufsize=50000 / crf_max=0.0 / nal_hrd=none / filler=0 / ip_ratio=1.40 / pb_ratio=1.30 / aq=1:1.00
Язык : English
Default : Да
Forced : Нет
DURATION : 02:01:33.870000000
NUMBER_OF_FRAMES : 174878
NUMBER_OF_BYTES : 11689927094
_STATISTICS_WRITING_APP : mkvmerge v7.4.0 ('Circles') 64bit built on Dec 12 2014 12:19:56
_STATISTICS_WRITING_DATE_UTC : 2015-01-03 03:18:25
_STATISTICS_TAGS : BPS DURATION NUMBER_OF_FRAMES NUMBER_OF_BYTES

Аудио #1
Идентификатор : 2
Формат : DTS
Формат/Информация : Digital Theater Systems
Режим : 16
Параметр Endianness формата : Big
Идентификатор кодека : A_DTS
Продолжительность : 2 ч. 1 м.
Вид битрейта : Постоянный
Битрейт : 1509 Кбит/сек
Каналы : 6 каналов
Расположение каналов : Front: L C R, Side: L R, LFE
Частота : 48,0 КГц
Битовая глубина : 24 бит
Метод сжатия : С потерями
Размер потока : 1,28 Гбайт (9%)
Заголовок : AVO (Андрей Гаврилов)
Язык : Russian
Default : Да
Forced : Нет

Аудио #2
Идентификатор : 3
Формат : DTS
Формат/Информация : Digital Theater Systems
Режим : 16
Параметр Endianness формата : Big
Идентификатор кодека : A_DTS
Продолжительность : 2 ч. 1 м.
Вид битрейта : Постоянный
Битрейт : 1509 Кбит/сек
Каналы : 6 каналов
Расположение каналов : Front: L C R, Side: L R, LFE
Частота : 48,0 КГц
Битовая глубина : 24 бит
Метод сжатия : С потерями
Размер потока : 1,28 Гбайт (9%)
Заголовок : AVO (Юрий Живов)
Язык : Russian
Default : Нет
Forced : Нет

Аудио #3
Идентификатор : 4
Формат : DTS
Формат/Информация : Digital Theater Systems
Режим : 16
Параметр Endianness формата : Big
Идентификатор кодека : A_DTS
Продолжительность : 2 ч. 1 м.
Вид битрейта : Постоянный
Битрейт : 1509 Кбит/сек
Каналы : 6 каналов
Расположение каналов : Front: L C R, Side: L R, LFE
Частота : 48,0 КГц
Битовая глубина : 24 бит
Метод сжатия : С потерями
Размер потока : 1,28 Гбайт (9%)
Заголовок : Original
Язык : English
Default : Нет
Forced : Нет

Текст
Идентификатор : 5
Формат : UTF-8
Идентификатор кодека : S_TEXT/UTF8
Идентификатор кодека/Информация : UTF-8 Plain Text
Заголовок : английский (для слабослышащих)
Язык : English
Default : Нет
Forced : Нет

Меню
00:00:00.000 : :Chapter 01
00:13:56.252 : :Chapter 02
00:28:25.286 : :Chapter 03
00:44:10.731 : :Chapter 04
00:59:55.383 : :Chapter 05
01:17:09.249 : :Chapter 06
01:33:42.241 : :Chapter 07
01:57:03.975 : :Chapter 08
pb.wtf



Скачать Повелитель иллюзий через торрент http://i67.fastpic.ru/big/2015/0102/ef/312a0485e65e5f629416ec3443f8d0ef.jpg Скачать, смотреть онлайн Повелитель иллюзий бесплантно в хорошем качестве Описание: Заурядное дело, которое расследует частный детектив Гарри, приобретает пугающий оборот, когда он сталкивается с тайной, ... 10 10 2
Торрент: Зарегистрирован [2015-01-03 06:02] · скачан: 15 раз
Статус: √ проверено
Размер: 14.73 GB
Как cкачать? Как скачать Повелитель иллюзий через торрент | UTorrent

% Раздел Тема Автор DL S | L
Фильмы [HD 720p, 1080p] (Хороший звук DUB, MVO) [ 16.85 GB ] Повелитель иллюзий / Lord of Illusions [1995 BDRip 1080p by msltel] DUB MVO DVO 3 x AVO | Режиссёрская версия msltel Скачать
1 | 0
Фильмы [HD 720p, 1080p] (Хороший звук DUB, MVO) [ 6.86 GB ] Повелитель иллюзий / Lord of Illusions [1995 BDRip 720p by msltel] DUB MVO DVO 3 x AVO | Режиссёрская версия msltel Скачать
1 | 0
Фильмы с авторской озвучкой [ 6.24 GB ] Повелитель иллюзий / Lord of Illusions [1995 BDRip 720p] AVO / Режиссёрская версия msltel Скачать
1 | 0

28-11-2019 20:33  

Отключить всю рекламу на сайте

    Дорогой пользователь! Огромная просьба, поблагодарите релизера, оцените раздачу и оставьте свои комментарий, если Вы скачали Повелитель иллюзий через торрент бесплатно!
    Комментировать посты могут только пользователи прошедшие не сложную регистрацию
    Показать сообщения:    

    Повелитель иллюзий через торрент
    Скачать бесплатно Повелитель иллюзий
    Повелитель иллюзий скачать торрент
    Повелитель иллюзий смотреть онлайн
    Cкачать фильм Повелитель иллюзий бесплатно
    Повелитель иллюзий скачать торрент в хорошем качестве
    Повелитель иллюзий смотреть онлайн бесплатно в хорошем качестве


    Вы не можете начинать темы
    Вы не можете отвечать на сообщения
    Вы не можете редактировать свои сообщения
    Вы не можете удалять свои сообщения
    Вы не можете голосовать в опросах
    Вы не можете прикреплять файлы к сообщениям
    Вы можете скачивать файлы