Наша группа ВК в очередной раз забанена мы уходим в Телеграм, присоединяйтесь!!!

Лицензия

30

iTunes

мы

iTunes

1

1 сезон

Чернобыль

iTunes

1+1

iTunes

Закатать в асфальт

8 сезон

Игра престолов

1 сезон

Ральф против интернета

ИГРА 18+

pack

ВАЖНО

!!Акция!!

Alien_RageХит недели

RePack

Resident Evil 21
pack

RePack

Metro:Exodus

!!Акция!!

Alien_Rage

RePack

fifa19

RePack

Assassins Creed: Odyssey

RePack

NEED FOR SPEED™ PAYBACK

3 сезон

9 сезон

Бесстыжие 9 сезон

Все сериалы

все сериалы на PB.wtf

RePack

FAR CRY 5
Ребята, катастрофически не хватает 2730р. для оплаты серверов за АПРЕЛЬ (всвязи с блокировками трафик упал в 3 раза), 1-2р., выручайте.
  

Звуки музыки / The Sound of Music (Роберт Уайз / Robert Wise) [1965, США, мюзикл, драма, мелодрама, BDRip,Дубляж - [Лицензия] Профессиональный многоголосый Субтитры Оригинальный pb.wtf

Звуки музыки через торрент pb.wtf

Размер: 2.9 GB | Добавлен: 4 года 4 мес. назад | Торрент скачан:7 раз
Скачать  

03-01-2015 09:24 Звуки музыки Скачать торрент  

Звуки музыки / The Sound of Music

Год выпуска: 1965
Страна: США
Жанр: мюзикл, драма, мелодрама, семейный
Продолжительность: 02:54:41
Перевод: Дубляж - [Лицензия]
Профессиональный многоголосый

Субтитры: Русские (полные), русские (только песни, Парыгин М. В), английские (внешние, srt*)
Режиссер: Роберт Уайз / Robert Wise
В ролях: Джули Эндрюс (Maria), Кристофер Пламмер (Captain Von Trapp), Чармиан Карр (Liesl), Николас Хэммонд (Friedrich), Хезер Мензес (Louisa), Дуан Чейз (Kurt), Дебби Тёрнер (Marta), Ким Карат (Gretl), Анджела Картрайт (Brigitta), Ричард Хейдн (Max Detweiler), Элинор Паркер (The Baroness), Пегги Вуд (Mother Abbess)
Описание:
Действие фильма происходит в австрийском Зальцбурге накануне Второй мировой войны. Молодая девушка по имени Мария, оставшись сиротой, находит приют в женском монастыре и готовится стать монахиней. Однако в силу своего жизнелюбия ей это удается с трудом, и настоятельница монастыря понимает, что такой путь - не для ее юной послушницы.
Марии предлагают место гувернантки в семье, состоящей из армейского офицера, патриота своего отечества, у которого недавно умерла жена, мать его семерых детей...
Рейтинг
kinopoisk.ru: 8.127 (5443)
imdb.com: 8.00 (121 543)
MPAA: G - Нет возрастных ограничений
Качество: BDRip (источник: Blu-ray EUR / 1080p
Формат: AVI
Видео кодек: XviD
Аудио кодек:AC3
Видео: XviD, 704x320 (2.2:1), 1785 kbps, 23,976 fps, 0,331 bpp
Аудио №1: AC3 / 2.0 / 48 kHz / 192 kbps / 16 bit Дубляж
Аудио №2: AC3 / 5.1 / 48 kHz / 384 kbps / 16 bit MVO: Blu-ray EUR

Общее
Полное имя : D:\torrent\Zvuki.muzyki.1965.DUALRUS.BDRip.XviD.AC3\Zvuki.muzyki.1965.DUALRUS.BDRip.XviD.AC3.avi
Формат : AVI
Формат/Информация : Audio Video Interleave
Профиль формата : OpenDML
Размер файла : 2,90 Гбайт
Продолжительность : 2 ч. 54 м.
Общий поток : 2376 Кбит/сек
Название фильма : Звуки музыки / The Sound of Music [45th Anniversary Edition] (1965) BDRip
Режиссёр : xxL
Программа кодирования : VirtualDubMod 1.5.10.2 (build 2542/release)
Правообладатель : http://forum.hqclub.net/
Примечание : R.G. HQCLUB

Видео
Идентификатор : 0
Формат : MPEG-4 Visual
Профиль формата : Advanced Simple@L5
Параметр BVOP формата : 1
Параметр QPel формата : Нет
Параметр GMC формата : Без точки перехода
Параметр матрицы формата : Выборочная
Идентификатор кодека : XVID
Идентификатор кодека/Подсказка : XviD
Продолжительность : 2 ч. 54 м.
Битрейт : 1786 Кбит/сек
Ширина : 704 пикселя
Высота : 320 пикселей
Соотношение сторон : 2,2:1
Частота кадров : 23,976 кадра/сек
Цветовое пространство : YUV
Субдискретизация насыщенности : 4:2:0
Битовая глубина : 8 бит
Тип развёртки : Прогрессивная
Метод сжатия : С потерями
Бит/(Пиксели*Кадры) : 0.331
Размер потока : 2,18 Гбайт (75%)
Библиотека кодирования : XviD 57

Аудио #1
Идентификатор : 1
Формат : AC-3
Формат/Информация : Audio Coding 3
Расширение режима : CM (complete main)
Параметр Endianness формата : Big
Идентификатор кодека : 2000
Продолжительность : 2 ч. 54 м.
Вид битрейта : Постоянный
Битрейт : 192 Кбит/сек
Каналы : 2 канала
Расположение каналов : Front: L R
Частота : 48,0 КГц
Битовая глубина : 16 бит
Метод сжатия : С потерями
Размер потока : 239 Мбайт (8%)
Выравнивание : Разделение по промежуткам
Продолжительность промежутка : 42 мс. (1,00 видеокадр)
Время предзагрузки промежутка : 500 мс.

Аудио #2
Идентификатор : 2
Формат : AC-3
Формат/Информация : Audio Coding 3
Расширение режима : CM (complete main)
Параметр Endianness формата : Big
Идентификатор кодека : 2000
Продолжительность : 2 ч. 54 м.
Вид битрейта : Постоянный
Битрейт : 384 Кбит/сек
Каналы : 6 каналов
Расположение каналов : Front: L C R, Side: L R, LFE
Частота : 48,0 КГц
Битовая глубина : 16 бит
Метод сжатия : С потерями
Размер потока : 480 Мбайт (16%)
Выравнивание : Разделение по промежуткам
Продолжительность промежутка : 42 мс. (1,00 видеокадр)
Время предзагрузки промежутка : 500 мс.


pb.wtf



Скачать Звуки музыки через торрент http://i5.imageban.ru/out/2015/01/03/6aa68357b3b66ecbe15b213720d4ade0.png Скачать фильм Звуки музыки через торрент бесплантно в хорошем качестве Описание: Действие фильма происходит в австрийском Зальцбурге накануне Второй мировой войны. Молодая девушка по имени Мария, оставшись ... 5 10 1
Торрент: Зарегистрирован [2015-01-03 09:24] · скачан: 7 раз
Статус: √ проверено
Размер: 2.9 GB
Как cкачать? Как скачать Звуки музыки через торрент | qTorrent


>> Регистрируемся здесь <<






Отзывы и комментарии о схеме читаем и пишем здесь: ---> Отзывы и комментарии о схеме

Новые благодарочки в телеграм довольных пользователей:
скриншот   скриншот   скриншот   скриншот   скриншот
    Дорогой пользователь! Огромная просьба, поблагодарите релизера, оцените раздачу и оставьте свои комментарий, если Вы скачали Звуки музыки через торрент бесплатно! Внесите свою лепту в развитие PiratBit!
    Комментировать посты могут только пользователи прошедшие не сложную регистрацию
    Показать сообщения:    

    Звуки музыки через торрент
    Скачать бесплатно Звуки музыки
    Звуки музыки скачать торрент
    Звуки музыки смотреть онлайн
    Cкачать фильм Звуки музыки бесплатно
    Звуки музыки скачать торрент в хорошем качестве
    Звуки музыки смотреть онлайн бесплатно в хорошем качестве


    Вы не можете начинать темы
    Вы не можете отвечать на сообщения
    Вы не можете редактировать свои сообщения
    Вы не можете удалять свои сообщения
    Вы не можете голосовать в опросах
    Вы не можете прикреплять файлы к сообщениям
    Вы можете скачивать файлы