Ссылка на приватное зеркало нашего сайта всего за 1$. Внимание количество ограничено!!!

2 сезон

iTunes

1 сезон

1

2 сезон

2 сезон

iTunes

1 сезон

RePack

30

Ultimate

ВАЖНО

ИГРА 18+

pack

RePack

MK11
pack

Забери бонус

RePack

jed

!!Акция!!

Alien_Rage

RePack

fifa19

RePack

Assassins Creed: Odyssey

RePack

NEED FOR SPEED™ PAYBACK

4 сезон

9 сезон

Бесстыжие 9 сезон

Все сериалы

все сериалы на PB.wtf

RePack

FAR CRY 5
  

Deep Purple - Perfect Strangers Live / Deep Purple - Perfect Strangers Live [2013 г., Classic rock, hard rock, DVDRip, Оригинал] pb.wtf

Deep Purple - Perfect Strangers Live через торрент pb.wtf

Размер: 1.65 GB | Добавлен: 5 лет 10 мес. назад | Торрент скачан:71 раз
Скачать  

03-01-2015 10:17 Deep Purple - Perfect Strangers Live Скачать торрент  

Deep Purple - Perfect Strangers Live / Deep Purple - Perfect Strangers Live
Год выпуска: 2013
Страна: Eagle Vision
Жанр: Classic rock, hard rock
Продолжительность: 01:58:08
Перевод: Оригинал

В ролях: Deep Purple, Ричи Блэкмор, Иэн Гиллан, Роджер Гловер, Джон Лорд, Иэн Пэйс

Описание: 1984 год увидел долгожданное воссоединение классического 2го состава Deep Purple. Это первый раз с тех пор, когда они были вместе с 1973 года. Они записали новый студийный альбом, "Perfect Strangers", и отправились с ним в тур. Концерт группы 12 декабря в Сиднейском Entertainment Centre был профессионально заснят на плёнку и является единственной полнометражной записью группы на данный момент. "Perfect Strangers Live" является ошеломляющим концертом группы в зажигательной форме. Программа концерта перемежает новые треки группы со старыми фаворитами ранних 70-х с потрясающей кульминационной "Smoke On The Water" в финале. Это без сомнения один из лучших когда-либо снимавшихся концертов Deep Purple и «must have» для легионов фанатов этой группы...

01. Highway Star
02. Nobody’s Home
03. Strange Kind Of Woman
04. A Gypsy’s Kiss
05. Perfect Strangers
06. Under The Gun
07. Knocking At Your Back Door
08. Lazy (including Ian Paice drum solo)
09. Child In Time
10. Difficult To Cure
11. Jon Lord Keyboard Solo
12. Space Truckin' (with Ritchie Blackmore guitar solo)
13. Black Night
14. Speed King
15. Smoke On The Water
Качество: DVDRip
Формат: AVI
Видео кодек: XviD
Аудио кодек: AC3
Видео: 640x480 (1.33:1), 29.970 fps, XviD build 64 ~1537 kbps avg, 0.17 bit/pixel
Аудио#1: 48 kHz, AC3 Dolby Digital, 3/2 (L,C,R,l,r) + LFE ch, ~448 kbps





Общее
Полное имя : D:\torrent\Deep.Purple.Perfect.Strangers.Live.1984_2013.XviD.DVDRip.avi
Формат : AVI
Формат/Информация : Audio Video Interleave
Размер файла : 1,65 Гбайт
Продолжительность : 1 ч. 58 м.
Общий поток : 1997 Кбит/сек
Название фильма : Deep Purple - Perfect Strangers Live 1984 (2013) DVDRip от Занавес
Программа кодирования : VirtualDubMod 1.5.10.2 (build 2540/release)
Библиотека кодирования : VirtualDubMod build 2540/release

Видео
Идентификатор : 0
Формат : MPEG-4 Visual
Профиль формата : Advanced Simple@L5
Параметр BVOP формата : 4
Параметр QPel формата : Нет
Параметр GMC формата : Без точки перехода
Параметр матрицы формата : Default (MPEG)
Идентификатор кодека : XVID
Идентификатор кодека/Подсказка : XviD
Продолжительность : 1 ч. 58 м.
Битрейт : 1537 Кбит/сек
Ширина : 640 пикселей
Высота : 480 пикселей
Соотношение сторон : 4:3
Частота кадров : 29,970 кадров/сек
Цветовое пространство : YUV
Субдискретизация насыщенности : 4:2:0
Битовая глубина : 8 бит
Тип развёртки : Прогрессивная
Метод сжатия : С потерями
Бит/(Пиксели*Кадры) : 0.167
Размер потока : 1,27 Гбайт (77%)
Библиотека кодирования : XviD 64

Аудио
Идентификатор : 1
Формат : AC-3
Формат/Информация : Audio Coding 3
Расширение режима : CM (complete main)
Параметр Endianness формата : Big
Идентификатор кодека : 2000
Продолжительность : 1 ч. 58 м.
Вид битрейта : Постоянный
Битрейт : 448 Кбит/сек
Каналы : 6 каналов
Расположение каналов : Front: L C R, Side: L R, LFE
Частота : 48,0 КГц
Битовая глубина : 16 бит
Метод сжатия : С потерями
Размер потока : 379 Мбайт (22%)
Выравнивание : Разделение по промежуткам
Продолжительность промежутка : 33 мс. (1,00 видеокадр)
Время предзагрузки промежутка : 500 мс.

pb.wtf



Скачать Deep Purple - Perfect Strangers Live через торрент http://pic.kartinco.top/images/8/ceumt.jpg Скачать фильм Deep Purple - Perfect Strangers Live через торрент бесплантно в хорошем качестве Описание: 1984 год увидел долгожданное воссоединение классического 2го состава Deep Purple. Это первый раз с тех пор, когда они были вместе ... 10 10 10
Info! Серебряная раздача, засчитывается только 50% скачанного.
Торрент: Зарегистрирован [2015-01-03 10:17] · скачан: 71 раз
Статус: √ проверено
Размер: 1.65 GB
Как cкачать? Как скачать Deep Purple - Perfect Strangers Live через торрент | qTorrent

28-11-2019 20:33  

Отключить всю рекламу на сайте

    Дорогой пользователь! Огромная просьба, поблагодарите релизера, оцените раздачу и оставьте свои комментарий, если Вы скачали Deep Purple - Perfect Strangers Live через торрент бесплатно! Внесите свою лепту в развитие PiratBit!
    Комментировать посты могут только пользователи прошедшие не сложную регистрацию
    Показать сообщения:    

    Deep Purple - Perfect Strangers Live через торрент
    Скачать бесплатно Deep Purple - Perfect Strangers Live
    Deep Purple - Perfect Strangers Live скачать торрент
    Deep Purple - Perfect Strangers Live смотреть онлайн
    Cкачать фильм Deep Purple - Perfect Strangers Live бесплатно
    Deep Purple - Perfect Strangers Live скачать торрент в хорошем качестве
    Deep Purple - Perfect Strangers Live смотреть онлайн бесплатно в хорошем качестве


    Вы не можете начинать темы
    Вы не можете отвечать на сообщения
    Вы не можете редактировать свои сообщения
    Вы не можете удалять свои сообщения
    Вы не можете голосовать в опросах
    Вы не можете прикреплять файлы к сообщениям
    Вы можете скачивать файлы