Ссылка на приватное зеркало нашего сайта всего за 1$. Внимание количество ограничено!!!

2 сезон

iTunes

1 сезон

1

iTunes

iTunes

iTunes

1 сезон

RePack

30

ИГРА 18+

pack

ВАЖНО

!!Акция!!

Alien_RageХит недели

RePack

MK11
pack

Забери бонус

RePack

jed

!!Акция!!

Alien_Rage

RePack

fifa19

RePack

Assassins Creed: Odyssey

RePack

NEED FOR SPEED™ PAYBACK

4 сезон

9 сезон

Бесстыжие 9 сезон

Все сериалы

все сериалы на PB.wtf

RePack

FAR CRY 5
  

Догма / Dogma (Кевин Смит) [1999, фэнтези, комедия, приключения, BDRip 720p] DUB, 6 x AVO pb.wtf

Догма через торрент pb.wtf

Размер: 7.44 GB | Добавлен: 5 лет 9 мес. назад | Торрент скачан:233 раза
Скачать  

03-01-2015 12:02 Догма Скачать торрент  

Догма / Dogma

Год выпуска: 1999
Страна: США
Жанр: фэнтези, комедия, приключения
Продолжительность: 02:08:11
Перевод: дублированный, авторский
Субтитры: русские, английские (для слабослышащих) (все отдельно)

Режиссёр: Кевин Смит

В ролях: Бен Аффлек, Мэтт Дэймон, Линда Фиорентино, Сальма Хайек, Джейсон Ли, Джейсон Мьюз, Алан Рикман, Крис Рок, Бад Корт, Бэррет Хэкни, Джаред Пфеннигверт, Китао Сакурай, Джордж Карлин, Брайан О’Хэллоран, Бетти Эберлин, Дэн Этеридж, Дерек Милославлевич, Лесли Браден, Мари Елена О’Брайэн, Джанин Гарофало, Брайан Джонсон, Уолтер Флэнаган, Нэнси Бах, Армандо Родригез, Кевин Смит, Джефф Андерсон, Скотт Можер, Моника Хэмптон, Дуайт Юэлл, Бенжамин Дж. Кэйн мл., Ричард Бадеринва, Джейвон Джонсон, Деррик Сандерс, Марк Джой, Линда Ливайн, Итэн Сапли, Гвиневер Тёрнер, Джон Гордон, Мэттью Мехер, Нэнси Моссер, Роберт Холцман, Аланис Морисетт

Описание: Два падших ангела Локи и Бартлби обречённые вечно торчать в штате Висконсин, узнали, что у них есть шанс вернуться в рай. Для этого нужно всего лишь воспользоваться ошибочной церковной католической догмой, провозглашённой кардиналом-новатором: каждый прошедший через освящённую арку в соборе в Нью-Джерси получает отпущение грехов. Пройдя через неё, Локи и Бартлби получают прощение. Далее им надо стать смертными, умереть и возвратиться в рай. Есть только одно "но". Если это произойдёт, то исчезнет всё сущее на земле, включая род людской. Помешать этому может только пра.. пра… пра... праплемянница Иисуса Христа по имени Вифания, которой помогают тринадцатый апостол Руфус и два смертных пророка, одного из которых играет сам режиссёр, а второго — его друг Джейсон Мьюз. К ним присоединяется уже давно живущая на земле Муза по имени Серендипити, подрабатывающая стриптизёршей…



Качество: BDRip 720p Сравнение с исходником
Формат: MKV
Видео кодек: H.264
Аудио кодек: AC3
Видео: 4409 kbps, 1280x534, 23.976 кадра/с, 0.269 bpp
Аудио 1: русский, AC3, 448 kbps, 6 ch, 48 kHz [дублированный]
Аудио 2: русский, AC3, 448 kbps, 6 ch, 48 kHz [авторский, Юрий Живов]
Аудио 3: русский, AC3, 448 kbps, 6 ch, 48 kHz [авторский, Сергей Рябов]
Аудио 4: русский, AC3, 448 kbps, 6 ch, 48 kHz [авторский, Юрий Сербин]

Отдельные файлы
Аудио: русский, AC3, 448 kbps, 6 ch, 48 kHz [авторский, Дмитрий Штамп (sfariat), с ненормативной лексикой]
Аудио: русский, AC3, 448 kbps, 6 ch, 48 kHz [авторский, Игорь Швецов]
Аудио: русский, AC3, 448 kbps, 6 ch, 48 kHz [авторский, Михаил Яроцкий (kyberpunk), с ненормативной лексикой]
Аудио: английский, AC3, 448 kbps, 6 ch, 48 kHz [оригинал]

Имеются поименованные главы/чаптеры.
Общее
Полное имя : D:VideoDogma.1999.BDRip.720pDogma.1999.AVO.ru.Д.Штамп.ac3
Формат : AC-3
Формат/Информация : Audio Coding 3
Размер файла : 411 Мбайт
Продолжительность : 2 ч. 8 м.
Режим общего битрейта : Постоянный
Общий поток : 448 Кбит/сек

Аудио
Формат : AC-3
Формат/Информация : Audio Coding 3
Расширение режима : CM (complete main)
Параметр Endianness формата : Big
Продолжительность : 2 ч. 8 м.
Вид битрейта : Постоянный
Битрейт : 448 Кбит/сек
Каналы : 6 каналов
Расположение каналов : Front: L C R, Side: L R, LFE
Частота : 48,0 КГц
Битовая глубина : 16 бит
Метод сжатия : С потерями
Размер потока : 411 Мбайт (100%)

Общее
Полное имя : D:VideoDogma.1999.BDRip.720pDogma.1999.AVO.rus.И.Швецов.ac3
Формат : AC-3
Формат/Информация : Audio Coding 3
Размер файла : 411 Мбайт
Продолжительность : 2 ч. 8 м.
Режим общего битрейта : Постоянный
Общий поток : 448 Кбит/сек

Аудио
Формат : AC-3
Формат/Информация : Audio Coding 3
Расширение режима : CM (complete main)
Параметр Endianness формата : Big
Продолжительность : 2 ч. 8 м.
Вид битрейта : Постоянный
Битрейт : 448 Кбит/сек
Каналы : 6 каналов
Расположение каналов : Front: L C R, Side: L R, LFE
Частота : 48,0 КГц
Битовая глубина : 16 бит
Метод сжатия : С потерями
Размер потока : 411 Мбайт (100%)

Общее
Полное имя : D:VideoDogma.1999.BDRip.720pDogma.1999.AVO.rus.М.Яроцкий.ac3
Формат : AC-3
Формат/Информация : Audio Coding 3
Размер файла : 411 Мбайт
Продолжительность : 2 ч. 8 м.
Режим общего битрейта : Постоянный
Общий поток : 448 Кбит/сек

Аудио
Формат : AC-3
Формат/Информация : Audio Coding 3
Расширение режима : CM (complete main)
Параметр Endianness формата : Big
Продолжительность : 2 ч. 8 м.
Вид битрейта : Постоянный
Битрейт : 448 Кбит/сек
Каналы : 6 каналов
Расположение каналов : Front: L C R, Side: L R, LFE
Частота : 48,0 КГц
Битовая глубина : 16 бит
Метод сжатия : С потерями
Размер потока : 411 Мбайт (100%)

Общее
Уникальный идентификатор : 238937390681104578625313653436840358368 (0xB3C1AAE4DC8A2BFA8721A565F5D731E0)
Полное имя : D:VideoDogma.1999.BDRip.720pDogma.1999.BDRip.720p.mkv
Формат : Matroska
Версия формата : Version 4 / Version 2
Размер файла : 5,67 Гбайт
Продолжительность : 2 ч. 8 м.
Общий поток : 6327 Кбит/сек
Дата кодирования : UTC 2015-01-03 10:11:35
Программа кодирования : mkvmerge v7.4.0 ('Circles') 64bit built on Dec 12 2014 12:19:56
Библиотека кодирования : libebml v1.3.0 + libmatroska v1.4.1
DURATION : 02:08:11.680000000
NUMBER_OF_FRAMES : 240365
NUMBER_OF_BYTES : 430734080
_STATISTICS_WRITING_APP : mkvmerge v7.4.0 ('Circles') 64bit built on Dec 12 2014 12:19:56
_STATISTICS_WRITING_DATE_UTC : 2015-01-03 10:11:35
_STATISTICS_TAGS : BPS DURATION NUMBER_OF_FRAMES NUMBER_OF_BYTES

Видео
Идентификатор : 1
Формат : AVC
Формат/Информация : Advanced Video Codec
Профиль формата : High@L4.1
Параметр CABAC формата : Да
Параметр ReFrames формата : 9 кадров
Идентификатор кодека : V_MPEG4/ISO/AVC
Продолжительность : 2 ч. 8 м.
Битрейт : 4409 Кбит/сек
Ширина : 1280 пикселей
Высота : 534 пикселя
Соотношение сторон : 2,40:1
Режим частоты кадров : Постоянный
Частота кадров : 23,976 кадра/сек
Цветовое пространство : YUV
Субдискретизация насыщенности : 4:2:0
Битовая глубина : 8 бит
Тип развёртки : Прогрессивная
Бит/(Пиксели*Кадры) : 0.269
Размер потока : 3,95 Гбайт (70%)
Заголовок : BDRip -- STarankov
Библиотека кодирования : x264 core 142 r2431 ac76440
Настройки программы : cabac=1 / ref=9 / deblock=1:-1:-1 / analyse=0x3:0x113 / me=umh / subme=10 / psy=1 / psy_rd=1.00:0.15 / mixed_ref=1 / me_range=32 / chroma_me=1 / trellis=2 / 8x8dct=1 / cqm=0 / deadzone=21,11 / fast_pskip=1 / chroma_qp_offset=-3 / threads=6 / lookahead_threads=1 / sliced_threads=0 / nr=0 / decimate=1 / interlaced=0 / bluray_compat=0 / constrained_intra=0 / bframes=8 / b_pyramid=2 / b_adapt=2 / b_bias=0 / direct=3 / weightb=1 / open_gop=0 / weightp=2 / keyint=230 / keyint_min=23 / scenecut=40 / intra_refresh=0 / rc_lookahead=40 / rc=crf / mbtree=0 / crf=17.0 / qcomp=0.60 / qpmin=0 / qpmax=69 / qpstep=4 / vbv_maxrate=40000 / vbv_bufsize=50000 / crf_max=0.0 / nal_hrd=none / filler=0 / ip_ratio=1.40 / pb_ratio=1.30 / aq=1:1.00
Язык : English
Default : Да
Forced : Нет
DURATION : 02:08:11.684000000
NUMBER_OF_FRAMES : 184416
NUMBER_OF_BYTES : 4357725197
_STATISTICS_WRITING_APP : mkvmerge v7.4.0 ('Circles') 64bit built on Dec 12 2014 12:19:56
_STATISTICS_WRITING_DATE_UTC : 2015-01-03 10:11:35
_STATISTICS_TAGS : BPS DURATION NUMBER_OF_FRAMES NUMBER_OF_BYTES

Аудио #1
Идентификатор : 2
Формат : AC-3
Формат/Информация : Audio Coding 3
Расширение режима : CM (complete main)
Параметр Endianness формата : Big
Идентификатор кодека : A_AC3
Продолжительность : 2 ч. 8 м.
Вид битрейта : Постоянный
Битрейт : 448 Кбит/сек
Каналы : 6 каналов
Расположение каналов : Front: L C R, Side: L R, LFE
Частота : 48,0 КГц
Битовая глубина : 16 бит
Метод сжатия : С потерями
Размер потока : 411 Мбайт (7%)
Заголовок : DUB
Язык : Russian
Default : Да
Forced : Нет

Аудио #2
Идентификатор : 3
Формат : AC-3
Формат/Информация : Audio Coding 3
Расширение режима : CM (complete main)
Параметр Endianness формата : Big
Идентификатор кодека : A_AC3
Продолжительность : 2 ч. 8 м.
Вид битрейта : Постоянный
Битрейт : 448 Кбит/сек
Каналы : 6 каналов
Расположение каналов : Front: L C R, Side: L R, LFE
Частота : 48,0 КГц
Битовая глубина : 16 бит
Метод сжатия : С потерями
Размер потока : 411 Мбайт (7%)
Заголовок : AVO (Юрий Живов)
Язык : Russian
Default : Нет
Forced : Нет

Аудио #3
Идентификатор : 4
Формат : AC-3
Формат/Информация : Audio Coding 3
Расширение режима : CM (complete main)
Параметр Endianness формата : Big
Идентификатор кодека : A_AC3
Продолжительность : 2 ч. 8 м.
Вид битрейта : Постоянный
Битрейт : 448 Кбит/сек
Каналы : 6 каналов
Расположение каналов : Front: L C R, Side: L R, LFE
Частота : 48,0 КГц
Битовая глубина : 16 бит
Метод сжатия : С потерями
Размер потока : 411 Мбайт (7%)
Заголовок : AVO (Сергей Рябов)
Язык : Russian
Default : Нет
Forced : Нет

Аудио #4
Идентификатор : 5
Формат : AC-3
Формат/Информация : Audio Coding 3
Расширение режима : CM (complete main)
Параметр Endianness формата : Big
Идентификатор кодека : A_AC3
Продолжительность : 2 ч. 8 м.
Вид битрейта : Постоянный
Битрейт : 448 Кбит/сек
Каналы : 6 каналов
Расположение каналов : Front: L C R, Side: L R, LFE
Частота : 48,0 КГц
Битовая глубина : 16 бит
Метод сжатия : С потерями
Размер потока : 411 Мбайт (7%)
Заголовок : AVO (Юрий Сербин)
Язык : Russian
Default : Нет
Forced : Нет

Меню
00:00:00.000 : en:01 Start
00:03:41.805 : en:02 Loki & Bartleby
00:06:49.993 : en:03 The Loophole
00:09:50.715 : en:04 Bethany
00:12:38.675 : en:05 Azrael
00:14:08.056 : en:06 Metatron
00:17:57.910 : en:07 The Fine Print
00:24:27.675 : en:08 Jay & Silent Bob
00:29:22.552 : en:09 John Hughes Fans
00:33:40.810 : en:10 Adulterers Repent!
00:36:39.239 : en:11 Rufus
00:41:15.598 : en:12 13-th Apostle
00:45:17.506 : en:13 Serendipity
00:46:53.144 : en:14 Golden Calf Massacre
00:54:03.991 : en:15 A Muse
00:58:04.439 : en:16 Golgathan Demon
01:01:49.581 : en:17 A Warning
01:05:36.766 : en:18 Bethany & Barry
01:11:47.220 : en:19 Train Fight
01:14:09.695 : en:20 Epiphany
01:17:46.078 : en:21 Jesus' Grandniece
01:23:53.695 : en:22 Foul Play Afoot
01:29:30.907 : en:23 Holy Bartender
01:33:36.280 : en:24 Azrael's Grudge
01:38:08.800 : en:25 Take a Shot
01:40:33.027 : en:26 He Just Lost It
01:50:02.998 : en:27 God Revealed
01:53:46.778 : en:28 Miracles
02:00:48.742 : en:29 End Credits

Общее
Полное имя : D:VideoDogma.1999.BDRip.720pDogma.1999.eng.SDH.srt
Размер файла : 331 Кбайт

Общее
Полное имя : D:VideoDogma.1999.BDRip.720pDogma.1999.Original.eng.ac3
Формат : AC-3
Формат/Информация : Audio Coding 3
Размер файла : 587 Мбайт
Продолжительность : 2 ч. 8 м.
Режим общего битрейта : Постоянный
Общий поток : 640 Кбит/сек

Аудио
Формат : AC-3
Формат/Информация : Audio Coding 3
Расширение режима : CM (complete main)
Параметр Endianness формата : Big
Продолжительность : 2 ч. 8 м.
Вид битрейта : Постоянный
Битрейт : 640 Кбит/сек
Каналы : 6 каналов
Расположение каналов : Front: L C R, Side: L R, LFE
Частота : 48,0 КГц
Битовая глубина : 16 бит
Метод сжатия : С потерями
Размер потока : 587 Мбайт (100%)

Общее
Полное имя : D:VideoDogma.1999.BDRip.720pDogma.1999.rus.srt
Размер файла : 238 Кбайт
pb.wtf



Скачать Догма через торрент http://i64.fastpic.ru/big/2015/0103/b1/643204a8db3cb4f60f19fadec77d40b1.jpg Скачать фильм Догма через торрент бесплантно в хорошем качестве Описание: Два падших ангела Локи и Бартлби обречённые вечно торчать в штате Висконсин, узнали, что у них есть шанс вернуться в рай. Для ... 10 10 23
Info! Золотая раздача, скачанное не засчитывается.
Торрент: Зарегистрирован [2015-01-03 12:02] · скачан: 233 раз
Статус: √ проверено
Размер: 7.44 GB
Как cкачать? Как скачать Догма через торрент | qTorrent

% Раздел Тема Автор DL S | L
Фильмы [HD 720p, 1080p] (Хороший звук DUB, MVO) [ 15.56 GB ] Догма / Dogma [1999 BDRip 1080p] DUB 6 x AVO msltel Скачать
2 | 0

28-11-2019 20:33  

Отключить всю рекламу на сайте

03-01-2015 19:10 Догма Скачать торрент  

шикарный фильм pb.wtf



04-01-2015 04:33 Догма Скачать торрент  

отличный фильм!pb.wtf



    Дорогой пользователь! Огромная просьба, поблагодарите релизера, оцените раздачу и оставьте свои комментарий, если Вы скачали Догма через торрент бесплатно! Внесите свою лепту в развитие PiratBit!
    Комментировать посты могут только пользователи прошедшие не сложную регистрацию
    Показать сообщения:    

    Догма через торрент
    Скачать бесплатно Догма
    Догма скачать торрент
    Догма смотреть онлайн
    Cкачать фильм Догма бесплатно
    Догма скачать торрент в хорошем качестве
    Догма смотреть онлайн бесплатно в хорошем качестве


    Вы не можете начинать темы
    Вы не можете отвечать на сообщения
    Вы не можете редактировать свои сообщения
    Вы не можете удалять свои сообщения
    Вы не можете голосовать в опросах
    Вы не можете прикреплять файлы к сообщениям
    Вы можете скачивать файлы