Ссылка на приватное зеркало нашего сайта всего за 1$. Внимание количество ограничено!!!

2 сезон

iTunes

1 сезон

1

2 сезон

2 сезон

iTunes

1 сезон

RePack

30

Новинка

ВАЖНО

ИГРА 18+

pack

RePack

MK11
pack

Забери бонус

RePack

jed

!!Акция!!

Alien_Rage

RePack

fifa19

RePack

Assassins Creed: Odyssey

RePack

NEED FOR SPEED™ PAYBACK

4 сезон

9 сезон

Бесстыжие 9 сезон

Все сериалы

все сериалы на PB.wtf

RePack

FAR CRY 5
  

Нижний этаж / Ground Floor / Сезон: 2 / Серии 1-10 из 10 (Гейл Манкусо / Gail Mancuso, Джоди Марголин / Jody Margolin) [2014-2015, США, комедия, HDTVRip] MVO [Viruse Project] pb.wtf

Нижний этаж через торрент pb.wtf

Размер: 3.15 GB | Добавлен: 5 лет 7 мес. назад | Торрент скачан:26 раз
Скачать  

04-01-2015 03:22 Нижний этаж Скачать торрент  

Нижний этаж / Ground Floor
«Bringing work home can be awkward»


  • Год выпуска: 2014
  • Страна: США
  • Жанр: комедия
  • Продолжительность: 00:21:20
  • Перевод: Профессиональный (многоголосый закадровый) [Viruse Project]

  • Режиссер: Гейл Манкусо / Gail Mancuso, Джоди Марголин / Jody Margolin
  • В ролях:

    Скайлар Эстин (Brody), Брига Хилэн (Jennifer), Джон К. МакГинли (Mr. Mansfield), Rory Scovel (Harvard), Рене Губе (Threepeat), Джеймс Эрл (Derrick), Алексис Нэп (Tori), Эмили Хеллер (Lindsay), Bryce McBratnie (Kyle), Анна Кэмп (Heather), Кристофер Грэй (Cop #1), Qualiema Greene (Lucy)

  • Описание:
    Новый комедийный сериал от режиссера "Друзья", "Клиника", "Американская семейка", "Пригород" и др., который рассказывает о молодом и успешном банкире Броуди, который работает в компании Whitestone Trust. Броуди провел одну ночь с Дженнифер, а потом обнаружил, что она работает в службе обслуживания здания, где располагается его компания. С этого момента им приходится справляться с растущей взаимной симпатией, к большому раздражению сослуживцев.
  • Рейтинг:



  • Качество: HDTVRip
  • Формат: :AVI
  • Видео кодек: XviD
  • Аудио кодек: MP3
  • Видео: 720x400 (16:9), 1908 kbps, 23,976 fps, 0,276 bpp
  • Аудио: 2.0 / 48 kHz / 192 kbps /
  • Релиз от: GEKADOL

    Код:

    Внимание! Раздача ведётся путём добавления новых серий; при каждом добавлении создаётся новый торрент. Чтобы начать докачку новой серии, пользователям необходимо сделать следующее:
    (1) остановить скачивание,
    (2) удалить старый торрент у себя из клиента (старые серии удалять не надо),
    (3) скачать новый торрент и запустить его у себя в клиенте вместо старого, при этом указать клиенту путь в старую папку куда и должно происходить скачивание новых серий.
    Ваш клиент при этом должен произвести хеширование (проверку) старой папки (если не производит сам - помогите ему сделать это), и будет докачивать только те серии которых у вас ещё нет. Старые серии при этом не удаляются, а продолжают раздаваться!
    Eсли вы уже удалили старые серии, то предотвратить повторную закачку старых серий можно, отжав галочку в соответствующих местах при запуске нового торрента. По возможности, желательно не удалять старые серии как можно дольше чтобы релизёр не столько продолжал раздавать старые серии, а смог сконцентрироваться на новых.


    Код:

    General
    Complete name                            : I:\Ground.Floor.S02.ViruseProject\Ground.Floor.S02E01.ViruseProject.avi
    Format                                   : AVI
    Format/Info                              : Audio Video Interleave
    File size                                : 322 MiB
    Duration                                 : 21mn 20s
    Overall bit rate                         : 2 110 Kbps
    Writing application                      : VirtualDubMod 1.5.10.2 (build 2540/release)
    Writing library                          : VirtualDubMod build 2540/release

    Video
    ID                                       : 0
    Format                                   : MPEG-4 Visual
    Format profile                           : Advanced Simple@L5
    Format settings, BVOP                    : 1
    Format settings, QPel                    : No
    Format settings, GMC                     : No warppoints
    Format settings, Matrix                  : Default (MPEG)
    Codec ID                                 : XVID
    Codec ID/Hint                            : XviD
    Duration                                 : 21mn 20s
    Bit rate                                 : 1 908 Kbps
    Width                                    : 720 pixels
    Height                                   : 400 pixels
    Display aspect ratio                     : 16:9
    Frame rate                               : 23.976 fps
    Color space                              : YUV
    Chroma subsampling                       : 4:2:0
    Bit depth                                : 8 bits
    Scan type                                : Progressive
    Compression mode                         : Lossy
    Bits/(Pixel*Frame)                       : 0.276
    Stream size                              : 291 MiB (90%)
    Writing library                          : XviD 1.2.1 (UTC 2008-12-04)

    Audio
    ID                                       : 1
    Format                                   : MPEG Audio
    Format version                           : Version 1
    Format profile                           : Layer 3
    Mode                                     : Joint stereo
    Mode extension                           : MS Stereo
    Codec ID                                 : 55
    Codec ID/Hint                            : MP3
    Duration                                 : 21mn 20s
    Bit rate mode                            : Constant
    Bit rate                                 : 192 Kbps
    Channel(s)                               : 2 channels
    Sampling rate                            : 48.0 KHz
    Compression mode                         : Lossy
    Stream size                              : 29.3 MiB (9%)
    Alignment                                : Split accross interleaves
    Interleave, duration                     : 42 ms (1.00 video frame)
    Interleave, preload duration             : 500 ms


    Скриншоты:
    скриншот   скриншот   скриншот   скриншот   скриншот  
    скриншот  

    Раздача ведётся путём добавления новых серий. Добавлена 10 серия (02.04.2015).Просьба перекачать торрент файл.

    pb.wtf



  • Скачать Нижний этаж через торрент http://i66.fastpic.ru/big/2015/0104/e9/e6473fd55992b15ec5777df50c6af4e9.jpg Скачать фильм Нижний этаж через торрент бесплантно в хорошем качестве Описание: Новый комедийный сериал от режиссера "Друзья", "Клиника", "Американская семейка", "Пригород" и др., который рассказывает о ... 8.8 10 4
    Info! Золотая раздача, скачанное не засчитывается.
    Торрент: Зарегистрирован [2015-04-02 01:32] · скачан: 26 раз
    Статус: √ проверено
    Размер: 3.15 GB
    Как cкачать? Как скачать Нижний этаж через торрент | qTorrent

    28-11-2019 20:33  

    Отключить всю рекламу на сайте

      Дорогой пользователь! Огромная просьба, поблагодарите релизера, оцените раздачу и оставьте свои комментарий, если Вы скачали Нижний этаж через торрент бесплатно! Внесите свою лепту в развитие PiratBit!
      Комментировать посты могут только пользователи прошедшие не сложную регистрацию
      Показать сообщения:    

      Нижний этаж через торрент
      Скачать бесплатно Нижний этаж
      Нижний этаж скачать торрент
      Нижний этаж смотреть онлайн
      Cкачать фильм Нижний этаж бесплатно
      Нижний этаж скачать торрент в хорошем качестве
      Нижний этаж смотреть онлайн бесплатно в хорошем качестве


      Вы не можете начинать темы
      Вы не можете отвечать на сообщения
      Вы не можете редактировать свои сообщения
      Вы не можете удалять свои сообщения
      Вы не можете голосовать в опросах
      Вы не можете прикреплять файлы к сообщениям
      Вы можете скачивать файлы