MEGA SALE -50% FORZA HORIZON 4 ULTIMATE+ВСЕ DLC+ОНЛАЙН всего за 599р. 299 руб. (супер цена). Внимание количество ограничено!!!

iTunes

1+1

iTunes

мы

iTunes

1

iTunes

Чернобыль

iTunes

Ральф против интернета

Лицензия

ПШазам

Лицензия

Игра престолов

Лицензия

30
pack

ВАЖНО

!!Акция!!

Alien_RageХит недели

RePack

Resident Evil 21

ИГРА 18+

pack

RePack

Metro:Exodus

!!Акция!!

Alien_Rage

RePack

fifa19

RePack

Assassins Creed: Odyssey

RePack

NEED FOR SPEED™ PAYBACK

3 сезон

9 сезон

Бесстыжие 9 сезон

Все сериалы

все сериалы на PB.wtf

RePack

FAR CRY 5
Ребята, катастрофически не хватает 7730р. для оплаты серверов за АВГУСТ (всвязи с блокировками трафик упал в 3 раза), 1-2р., выручайте.
  

Операция «Святой Януарий» / Operazione San Gennaro (Дино Ризи / Dino Risi) [1966, Италия, Франция, Германия (ФРГ), комедия, криминал, DVDRip,Дубляж - [Лицензия] Профессиональный многоголосый Оригинальный pb.wtf

Операция «Святой Януарий» через торрент pb.wtf

Размер: 2.11 GB | Добавлен: 4 года 8 мес. назад | Торрент скачан:37 раз
Скачать  

04-01-2015 10:56 Операция «Святой Януарий» Скачать торрент  

Операция «Святой Януарий» / Operazione San Gennaro

Год выпуска: 1966
Страна: Италия, Франция, Германия (ФРГ)
Жанр: комедия, криминал

Продолжительность: 01:38:02
Перевод: Дубляж - [Лицензия]
Профессиональный многоголосый
Оригинальный
Субтитры: Русские(вшитые отключаемые)
Режиссер: Дино Ризи / Dino Risi
В ролях: Нино Манфреди (Armandino Girasole), Зента Бергер (Maggie), Гарри Гуардино (Jack), Ральф Вольтер (Frank), Клодин Оже (Concettina), Тото (Don Vincenzo), Марио Адорф (Sciascillo), Фрэнк Вулф (Joe), Уго Фангареджи (Agonia), Данте Маджио (Il capitano), Джованни Друди (Il cardinale), Пинуччо Ардиа (Il barone)
Описание:
Золото Неаполя не дает покоя авантюристам из Нового Света. И вот, американцы решаются на ограбление века: их цель - сокровища святого Януария.
Но что могут делать иностранцы в сердце Италии без поддержки местных авторитетов? Фотографироваться на фоне памятников. А воровать надо с согласия мафии. И вот, интернациональная бригада выходит на дело...
Рейтинг
kinopoisk.ru: 7.884 (827)
imdb.com: 7.00 (584)
Качество: DVDRip-AVC
Формат: MKV
Видео кодек: AVC
Аудио кодек:AC3
Видео: AVC, 700x456 (1.636), 2500 kbps, 25 fps, 0,313 bpp
Аудио №1: русский / AC3 / 2.0 / 48 kHz / 192 kbps / 16 bit DUB
Аудио №2: русский / AC3 / 2.0 / 48 kHz / 192 kbps / 16 bit MVO
Аудио №3: итальянский / AC3 / 2.0 / 48 kHz / 192 kbps / 16 bit Original
Формат субтитров: softsub (SRT) (отдельно)

General
Unique ID : 196422088279758081518621395978717229379 (0x93C584A5DA332AF8B1837CB76343F143)
Complete name : D:\torrent\Операция Святой Януарий.1966.dub.mvo\Операция Святой Януарий.1966.mkv
Format : Matroska
Format version : Version 2
File size : 2.11 GiB
Duration : 1h 38mn
Overall bit rate : 3 079 Kbps
Movie name : «Операция "Святой Януарий" / Operazione San Gennaro»
Encoded date : UTC 2014-01-31 19:16:56
Writing application : mkvmerge v5.8.0 ('No Sleep / Pillow') built on Sep 2 2012 15:37:04
Writing library : libebml v1.2.3 + libmatroska v1.3.0
Comment : DVDRip-AVC
Original date released : January 31st 2014
Encoded by : imgeorgest®

Video
ID : 1
Format : AVC
Format/Info : Advanced Video Codec
Format profile : High@L4.1
Format settings, CABAC : Yes
Format settings, ReFrames : 16 frames
Codec ID : V_MPEG4/ISO/AVC
Duration : 1h 38mn
Bit rate : 2 500 Kbps
Width : 700 pixels
Height : 456 pixels
Display aspect ratio : 1.636
Original display aspect ratio : 1.637
Frame rate : 25.000 fps
Color space : YUV
Chroma subsampling : 4:2:0
Bit depth : 8 bits
Scan type : Progressive
Bits/(Pixel*Frame) : 0.313
Stream size : 1.67 GiB (79%)
Title : Операция "Святой Януарий" / Operazione San Gennaro.1966
Writing library : x264 core 130 r2273 b3065e6
Encoding settings : cabac=1 / ref=16 / deblock=1:-2:-2 / analyse=0x3:0x133 / me=umh / subme=11 / psy=1 / psy_rd=0.90:0.00 / mixed_ref=1 / me_range=48 / chroma_me=1 / trellis=2 / 8x8dct=1 / cqm=0 / deadzone=21,11 / fast_pskip=0 / chroma_qp_offset=-2 / threads=12 / lookahead_threads=3 / sliced_threads=0 / nr=0 / decimate=0 / interlaced=0 / bluray_compat=0 / constrained_intra=0 / bframes=16 / b_pyramid=2 / b_adapt=2 / b_bias=0 / direct=3 / weightb=1 / open_gop=0 / weightp=2 / keyint=250 / keyint_min=25 / scenecut=40 / intra_refresh=0 / rc_lookahead=40 / rc=2pass / mbtree=0 / bitrate=2500 / ratetol=1.0 / qcomp=0.70 / qpmin=0 / qpmax=32 / qpstep=4 / cplxblur=20.0 / qblur=0.5 / vbv_maxrate=50000 / vbv_bufsize=62500 / nal_hrd=none / ip_ratio=1.35 / pb_ratio=1.25 / aq=1:0.90
Language : Italian
Default : Yes
Forced : No
Color primaries : BT.470-6 System B, BT.470-6 System G, BT.601-6 625, BT.1358 625, BT.1700 625 PAL, BT.1700 625 SECAM
Transfer characteristics : BT.470-6 System B, BT.470-6 System G
Matrix coefficients : BT.470-6 System B, BT.470-6 System G, BT.601-6 625, BT.1358 625, BT.1700 625 PAL, BT.1700 625 SECAM, IEC 61966-2-4 601

Audio #1
ID : 2
Format : AC-3
Format/Info : Audio Coding 3
Mode extension : CM (complete main)
Codec ID : A_AC3
Duration : 1h 38mn
Bit rate mode : Constant
Bit rate : 192 Kbps
Channel(s) : 2 channels
Channel positions : Front: L R
Sampling rate : 48.0 KHz
Bit depth : 16 bits
Compression mode : Lossy
Stream size : 135 MiB (6%)
Title : Dub: AC-3; 16 bits 48 Khz; 2.0ch 192 Kbps; CBR
Language : Russian
Default : Yes
Forced : No

Audio #2
ID : 3
Format : AC-3
Format/Info : Audio Coding 3
Mode extension : CM (complete main)
Codec ID : A_AC3
Duration : 1h 38mn
Bit rate mode : Constant
Bit rate : 192 Kbps
Channel(s) : 2 channels
Channel positions : Front: L R
Sampling rate : 48.0 KHz
Bit depth : 16 bits
Compression mode : Lossy
Stream size : 135 MiB (6%)
Title : MVO: AC-3; 16 bits 48 Khz; 2.0ch 192 Kbps; CBR | Cinema Prestige
Language : Russian
Default : No
Forced : No

Audio #3
ID : 4
Format : AC-3
Format/Info : Audio Coding 3
Mode extension : CM (complete main)
Codec ID : A_AC3
Duration : 1h 38mn
Bit rate mode : Constant
Bit rate : 192 Kbps
Channel(s) : 2 channels
Channel positions : Front: L R
Sampling rate : 48.0 KHz
Bit depth : 16 bits
Compression mode : Lossy
Stream size : 135 MiB (6%)
Title : Original: AC-3; 16 bits 48 Khz; 2.0ch 192 Kbps; CBR | ita
Language : Italian
Default : No
Forced : No


pb.wtf



Скачать Операция «Святой Януарий» через торрент http://i6.imageban.ru/out/2015/01/04/cf4426e5c1849e7e4729049e30d9e0db.png Скачать фильм Операция «Святой Януарий» через торрент бесплантно в хорошем качестве Описание: Золото Неаполя не дает покоя авантюристам из Нового Света. И вот, американцы решаются на ограбление века: их цель - сокровища ... 10 10 2
Торрент: Зарегистрирован [2015-01-04 10:56] · скачан: 37 раз
Статус: √ проверено
Размер: 2.11 GB
Как cкачать? Как скачать Операция «Святой Януарий» через торрент | qTorrent


>> Регистрируемся здесь <<






Отзывы и комментарии о схеме читаем и пишем здесь: ---> Отзывы и комментарии о схеме

Новые благодарочки в телеграм довольных пользователей:
скриншот   скриншот   скриншот   скриншот   скриншот
    Дорогой пользователь! Огромная просьба, поблагодарите релизера, оцените раздачу и оставьте свои комментарий, если Вы скачали Операция «Святой Януарий» через торрент бесплатно! Внесите свою лепту в развитие PiratBit!
    Комментировать посты могут только пользователи прошедшие не сложную регистрацию
    Показать сообщения:    

    Операция «Святой Януарий» через торрент
    Скачать бесплатно Операция «Святой Януарий»
    Операция «Святой Януарий» скачать торрент
    Операция «Святой Януарий» смотреть онлайн
    Cкачать фильм Операция «Святой Януарий» бесплатно
    Операция «Святой Януарий» скачать торрент в хорошем качестве
    Операция «Святой Януарий» смотреть онлайн бесплатно в хорошем качестве


    Вы не можете начинать темы
    Вы не можете отвечать на сообщения
    Вы не можете редактировать свои сообщения
    Вы не можете удалять свои сообщения
    Вы не можете голосовать в опросах
    Вы не можете прикреплять файлы к сообщениям
    Вы можете скачивать файлы