2 сезон

iTunes

1 сезон

1

iTunes

iTunes

iTunes

1 сезон

RePack

30

ИГРА 18+

pack

ВАЖНО

!!Акция!!

Alien_RageХит недели

RePack

MK11
pack

Забери бонус

RePack

jed

!!Акция!!

Alien_Rage

RePack

fifa19

RePack

Assassins Creed: Odyssey

RePack

NEED FOR SPEED™ PAYBACK

4 сезон

9 сезон

Бесстыжие 9 сезон

Все сериалы

все сериалы на PB.wtf

RePack

FAR CRY 5
  

Очень хорошие девочки / Very Good Girls (Наоми Фонер) [2013 г., драма, BDRip 720p, Профессиональный многоголосый, Лицензия] pb.wtf

Очень хорошие девочки через торрент pb.wtf

Размер: 4.08 GB | Добавлен: 5 лет 9 мес. назад | Торрент скачан:52 раза
Скачать  

04-01-2015 15:48 Очень хорошие девочки Скачать торрент  

Очень хорошие девочки / Very Good Girls
Год выпуска: 2013
Страна: США
Жанр: драма
Продолжительность: 01:30:50
Перевод: Профессиональный многоголосый, Лицензия
Субтитры: English (Full)

Режиссер: Наоми Фонер
Продюссер: Нортон Херрик, Майкл Лондон, Мэри Джейн Скалски
Сценарий: Наоми Фонер
Премьера в мире: 22 января 2013

IMDB 6.00 (4244)


В ролях: Дакота Фаннинг, Элизабет Олсен, Бойд Холбрук, Эллен Баркин, Ричард Дрейфусс, Деми Мур, Стерлинг Джонс, Ленни Арройо-Платт, Кирнан Шипка, Клер Фоли

Описание: Две нью-йоркские девушки договариваются потерять свою девственность в первое лето после окончания школы. Но получается так, что они обе влюбляются в одного уличного артиста...

Доп. информация: Сохранены оригинальные чаптеры, как на Blu-Ray

Качество: BDRip 720p
Формат: MKV
Видео кодек: AVC
Аудио кодек: AC3
Видео: MPEG-4 AVC, 5215 Кбит/с, 1280x536, 23,976 кадра/сек
Аудио#1: Russian: 48 kHz, AC3 Dolby Digital, 3/2 (L,C,R,l,r) + LFE ch, ~448 kbps |Многоголосый закадровый, R5|
Аудио#2: English: 48 kHz, AC3 Dolby Digital, 3/2 (L,C,R,l,r) + LFE ch, ~640 kbps
General
Unique ID : 175785097751543391153200541791262845239 (0x843EFA7562E782979152FC59BEFBA937)
Complete name : /home/msb2426/files/Very.Good.Girls.2013.720p.BluRay.Rus.Eng.x264.KinoRay.mkv
Format : Matroska
Format version : Version 2
File size : 4.08 GiB
Duration : 1h 30mn
Overall bit rate : 6 431 Kbps
Movie name : KinoRay.TV
Encoded date : UTC 2015-01-04 12:38:20
Writing application : mkvmerge v3.3.0 ('Language') built on Mar 24 2010 14:59:24
Writing library : libebml v0.8.0 + libmatroska v0.9.0
DURATION : 01:29:39.081000000
NUMBER_OF_FRAMES : 1116
NUMBER_OF_BYTES : 28631
_STATISTICS_WRITING_APP : mkvmerge v7.2.0 ('On Every Street') 64bit built on Sep 13 2014 15:52:10
_STATISTICS_WRITING_DATE_UTC : 2014-10-08 05:24:52
_STATISTICS_TAGS : BPS DURATION NUMBER_OF_FRAMES NUMBER_OF_BYTES

Video
ID : 1
Format : AVC
Format/Info : Advanced Video Codec
Format profile : High@L4.1
Format settings, CABAC : Yes
Format settings, ReFrames : 12 frames
Codec ID : V_MPEG4/ISO/AVC
Duration : 1h 30mn
Bit rate : 5 215 Kbps
Width : 1 280 pixels
Height : 536 pixels
Display aspect ratio : 2.40:1
Frame rate : 23.976 fps
Color space : YUV
Chroma subsampling : 4:2:0
Bit depth : 8 bits
Scan type : Progressive
Bits/(Pixel*Frame) : 0.317
Stream size : 3.31 GiB (81%)
Writing library : x264 core 142 r2431+42 c69a006 tMod [8-bit@all X86_64]
Encoding settings : cabac=1 / ref=12 / deblock=1:-3:-3 / analyse=0x3:0x133 / me=umh / subme=10 / psy=1 / fade_compensate=0.00 / psy_rd=1.05:0.00 / mixed_ref=1 / me_range=24 / chroma_me=1 / trellis=2 / 8x8dct=1 / cqm=0 / deadzone=21,11 / fast_pskip=1 / chroma_qp_offset=-2 / threads=12 / lookahead_threads=2 / sliced_threads=0 / nr=0 / decimate=1 / interlaced=0 / bluray_compat=0 / constrained_intra=0 / fgo=0 / bframes=9 / b_pyramid=2 / b_adapt=2 / b_bias=0 / direct=3 / weightb=1 / open_gop=0 / weightp=2 / keyint=250 / keyint_min=23 / scenecut=40 / intra_refresh=0 / rc=crf / mbtree=0 / crf=14.8000 / qcomp=0.65 / qpmin=0:0:0 / qpmax=69:69:69 / qpstep=4 / ip_ratio=1.30 / pb_ratio=1.20 / aq=4:0.70 / aq-sensitivity=10.00 / aq-factor=1.00:1.00:1.00 / aq2=0 / aq3=0
Language : English
Default : No
Forced : No
DURATION : 01:30:50.862000000
NUMBER_OF_FRAMES : 130690
NUMBER_OF_BYTES : 3638985261
_STATISTICS_WRITING_APP : mkvmerge v7.2.0 ('On Every Street') 64bit built on Sep 13 2014 15:52:10
_STATISTICS_WRITING_DATE_UTC : 2014-10-08 05:24:52
_STATISTICS_TAGS : BPS DURATION NUMBER_OF_FRAMES NUMBER_OF_BYTES
Matrix coefficients : BT.709-5, BT.1361, IEC 61966-2-4 709, SMPTE RP177

Audio #1
ID : 2
Format : AC-3
Format/Info : Audio Coding 3
Mode extension : CM (complete main)
Format settings, Endianness : Big
Codec ID : A_AC3
Duration : 1h 30mn
Bit rate mode : Constant
Bit rate : 448 Kbps
Channel(s) : 6 channels
Channel positions : Front: L C R, Side: L R, LFE
Sampling rate : 48.0 KHz
Bit depth : 16 bits
Compression mode : Lossy
Stream size : 291 MiB (7%)
Title : AC3 5.1 @ 448 kbps
Language : Russian
Default : Yes
Forced : No

Audio #2
ID : 3
Format : AC-3
Format/Info : Audio Coding 3
Mode extension : CM (complete main)
Format settings, Endianness : Big
Codec ID : A_AC3
Duration : 1h 30mn
Bit rate mode : Constant
Bit rate : 640 Kbps
Channel(s) : 6 channels
Channel positions : Front: L C R, Side: L R, LFE
Sampling rate : 48.0 KHz
Bit depth : 16 bits
Compression mode : Lossy
Stream size : 416 MiB (10%)
Title : AC3 5.1 @ 640 kbps
Language : English
Default : No
Forced : No

Text
ID : 4
Format : UTF-8
Codec ID : S_TEXT/UTF8
Codec ID/Info : UTF-8 Plain Text
Language : English
Default : No
Forced : No
скриншот   скриншот   скриншот  pb.wtf



Скачать Очень хорошие девочки через торрент http://pic.kartinco.top/images/8/inzi6.jpg Скачать фильм Очень хорошие девочки через торрент бесплантно в хорошем качестве Описание: Две нью-йоркские девушки договариваются потерять свою девственность в первое лето после окончания школы. Но получается так, что ... 7.6 10 10
Торрент: Зарегистрирован [2015-01-04 15:48] · скачан: 52 раз
Статус: √ проверено
Размер: 4.08 GB
Как cкачать? Как скачать Очень хорошие девочки через торрент | qTorrent

% Раздел Тема Автор DL S | L
Фильмы 2013 [DVDrip, WEB-DLRip, HDrip] [ 1.47 GB ] Очень хорошие девочки / Very Good Girls [2013 HDRip многоголосый [НТВ Ворон Скачать
1 | 0

28-11-2019 20:33  

Отключить всю рекламу на сайте

04-01-2015 16:41 Очень хорошие девочки Скачать торрент  

ИМХО, фильм по сути не о чем, но раздающему по любому спасибо. Любителям молодежных любовных интриг, попускать сопли и т.д. - самое оно.pb.wtf



    Дорогой пользователь! Огромная просьба, поблагодарите релизера, оцените раздачу и оставьте свои комментарий, если Вы скачали Очень хорошие девочки через торрент бесплатно! Внесите свою лепту в развитие PiratBit!
    Комментировать посты могут только пользователи прошедшие не сложную регистрацию
    Показать сообщения:    

    Очень хорошие девочки через торрент
    Скачать бесплатно Очень хорошие девочки
    Очень хорошие девочки скачать торрент
    Очень хорошие девочки смотреть онлайн
    Cкачать фильм Очень хорошие девочки бесплатно
    Очень хорошие девочки скачать торрент в хорошем качестве
    Очень хорошие девочки смотреть онлайн бесплатно в хорошем качестве


    Вы не можете начинать темы
    Вы не можете отвечать на сообщения
    Вы не можете редактировать свои сообщения
    Вы не можете удалять свои сообщения
    Вы не можете голосовать в опросах
    Вы не можете прикреплять файлы к сообщениям
    Вы можете скачивать файлы