Ссылка на приватное зеркало всего за 1$. Внимание количество ограничено!!!

iTunes

iTunes

iTunes

1

iTunes

iTunes

iTunes

WEBRip

iTunes

30
pack

$ от Little Big

ВАЖНО

!!Акция!!

Alien_RageХит недели

RePack

Resident Evil 21

ИГРА 18+

pack

RePack

jed

!!Акция!!

Alien_Rage

RePack

fifa19

RePack

Assassins Creed: Odyssey

RePack

NEED FOR SPEED™ PAYBACK

4 сезон

9 сезон

Бесстыжие 9 сезон

Все сериалы

все сериалы на PB.wtf

RePack

FAR CRY 5
  

Белая стрела (Александр Бурцев) [2007 г., Детектив, боевик, драма, криминал, DVDRip] pb.wtf

Белая стрела через торрент pb.wtf

Размер: 1.37 GB | Добавлен: 5 лет 7 мес. назад | Торрент скачан:423 раза
Скачать  

04-01-2015 16:32 Белая стрела Скачать торрент  

Белая стрелаГод выпуска: 2007
Страна: Россия Интра Фильм
Жанр: Детектив, боевик, драма, криминал
Продолжительность: 01:35:46

Режиссер: Александр Бурцев
Продюссер: Сергей Каратаев, Виктор Умнов
Сценарий: Андрей Новоселов В ролях: Владимир Артемов, Виталий Коваленко, Евгений Леонов-Гладышев, Сергей Маховиков, Светлана Щедрина, Алексей Шутов, Владислав Юрчикевич, Андрей Лёвин, Александр Саюталин, Полина Воробьева

Описание: Середина 90-х годов… У десантника Николая Балакирева умирает мать. Он вынужден уйти со службы и вернуться в Санкт-Петербург к сестре, которая после смерти родителей осталась совсем одна. Старинный друг отца Николая, генерал Кашин, предлагает ему работу в Управлении по борьбе с организованной преступностью, которое он возглавляет. Вскоре сестру Николая убивает известный в городе бандит – Пеликан. Но благодаря большим деньгам и связям Пеликану удается избежать наказания. Николай принимает решение самостоятельно расправиться с Пеликаном, но его опережают неизвестные бойцы в масках, которые расстреливают бандита и оставляют возле убитого визитную карточку со знаком белой стрелы. Николаю еще не раз доведется увидеть эти визитки, прежде чем он узнает, что это знак таинственной организации, возложившей на себя миссию очистить общество от преступности и коррупции, с которой в конце прошлого века не справлялось государство. Николай настойчиво стремится вступить в «Белую стрелу», и в конце концов его усилия увенчаются успехом... Спираль событий стремительно закручивается. В жестокой и беспощадной борьбе с криминалом и оборотнями в погонах гибнут все члены «Белой стрелы». Только Николаю чудом удается выжить. Спустя годы он мстит за смерть товарищей.

Качество: DVDRip
Формат: AVI
Видео кодек: DivX
Аудио кодек: AC3
Видео: DivX 5, 688x384, 25fps, 1778kbps
Аудио: Dolby AC3, 48000Hz, stereo, 256kbps
Релиз от: Velmas
Скриншоты:скриншот   скриншот   скриншот   скриншот  скриншот  скриншот   скриншот   скриншот  




General
Complete name : G:\07 03 2014\Belaya.strela.2007.DivX.DVDRip.BestVideo.avi
Format : AVI
Format/Info : Audio Video Interleave
File size : 1.37 GiB
Duration : 1h 35mn
Overall bit rate : 2 044 Kbps
Writing application : FairUse Wizard
Writing library : The best and REALLY easy backup tool

Video
ID : 0
Format : MPEG-4 Visual
Format settings, BVOP : 1
Format settings, QPel : No
Format settings, GMC : No warppoints
Format settings, Matrix : Default (H.263)
Muxing mode : Packed bitstream
Codec ID : DX50
Codec ID/Hint : DivX 5
Duration : 1h 35mn
Bit rate : 1 779 Kbps
Width : 688 pixels
Height : 384 pixels
Display aspect ratio : 16:9
Frame rate : 25.000 fps
Color space : YUV
Chroma subsampling : 4:2:0
Bit depth : 8 bits
Scan type : Progressive
Compression mode : Lossy
Bits/(Pixel*Frame) : 0.269
Stream size : 1.19 GiB (87%)
Writing library : DivX 6.2.5 (UTC 2006-07)

Audio
ID : 1
Format : AC-3
Format/Info : Audio Coding 3
Mode extension : CM (complete main)
Format settings, Endianness : Big
Codec ID : 2000
Duration : 1h 35mn
Bit rate mode : Constant
Bit rate : 256 Kbps
Channel(s) : 2 channels
Channel positions : Front: L R
Sampling rate : 48.0 KHz
Bit depth : 16 bits
Compression mode : Lossy
Stream size : 175 MiB (13%)
Alignment : Split accross interleaves
Interleave, duration : 40 ms (1.00 video frame)
Interleave, preload duration : 500 ms

pb.wtf



Скачать Белая стрела через торрент http://pic.kartinco.top/images/8/gtiu3.jpg Скачать фильм Белая стрела через торрент бесплантно в хорошем качестве Описание: Середина 90-х годов… У десантника Николая Балакирева умирает мать. Он вынужден уйти со службы и вернуться в Санкт-Петербург к ... 9.9 10 16
Торрент: Зарегистрирован [2015-01-04 16:32] · скачан: 423 раз
Статус: √ проверено
Размер: 1.37 GB
Как cкачать? Как скачать Белая стрела через торрент | qTorrent

% Раздел Тема Автор DL S | L
Наши сериалы [ 7.62 GB ] Белая стрела. Возмездие / Сезон: 1 / Серии: 1-12 из 12 Алексей Шикин) [2015 SATRip] bober100 Скачать
1 | 0
Наши сериалы [ 10.4 GB ] Белая стрела. Возмездие / Сезон: 1 / Серии: 1-12 из 12 Алексей Шикин) [2015 WEB-DL 1080p] bober100 Скачать
1 | 0
Кино СССР [ 2.61 GB ] Не стреляйте в белых лебедей [1980 экранизация SATRip-AVC] Скорпион1976 Скачать
1 | 0
Наши сериалы [ 7.03 GB ] Белая стрела. Возмездие / Серии: 1-12 из 12 Алексей Шикин) [2015 SATRip-AVC] aleksan55 Скачать
1 | 0

28-11-2019 20:33  

Отключить всю рекламу на сайте

04-01-2015 16:37 Белая стрела Скачать торрент  

сюжет схожий с фильмом "Меч" 2009 годаpb.wtf



04-01-2015 17:11 Белая стрела Скачать торрент  

Меч был отличный сериал,многие ждали продолжения...
посмотримс оценимс... Спасибо.pb.wtf



04-01-2015 17:17 Белая стрела Скачать торрент  

отличного просмотра!"меч 2" обещают в этом 2015 годуpb.wtf



27-03-2015 18:24 Белая стрела Скачать торрент  

lug30 писал(а):

отличного просмотра!"меч 2" обещают в этом 2015 году

Уважаемый, а откуда у вас такая информация, поделитесь пожалуйста!?pb.wtf



    Дорогой пользователь! Огромная просьба, поблагодарите релизера, оцените раздачу и оставьте свои комментарий, если Вы скачали Белая стрела через торрент бесплатно! Внесите свою лепту в развитие PiratBit!
    Комментировать посты могут только пользователи прошедшие не сложную регистрацию
    Показать сообщения:    

    Белая стрела через торрент
    Скачать бесплатно Белая стрела
    Белая стрела скачать торрент
    Белая стрела смотреть онлайн
    Cкачать фильм Белая стрела бесплатно
    Белая стрела скачать торрент в хорошем качестве
    Белая стрела смотреть онлайн бесплатно в хорошем качестве


    Вы не можете начинать темы
    Вы не можете отвечать на сообщения
    Вы не можете редактировать свои сообщения
    Вы не можете удалять свои сообщения
    Вы не можете голосовать в опросах
    Вы не можете прикреплять файлы к сообщениям
    Вы можете скачивать файлы