Ссылка на приватное зеркало нашего сайта всего за 1$. Внимание количество ограничено!!!

2 сезон

iTunes

1 сезон

1

2 сезон

2 сезон

iTunes

1 сезон

RePack

30

Новинка

ВАЖНО

ИГРА 18+

pack

RePack

MK11
pack

Забери бонус

RePack

jed

!!Акция!!

Alien_Rage

RePack

fifa19

RePack

Assassins Creed: Odyssey

RePack

NEED FOR SPEED™ PAYBACK

4 сезон

9 сезон

Бесстыжие 9 сезон

Все сериалы

все сериалы на PB.wtf

RePack

FAR CRY 5
  

Мушкетеры / The Musketeers / Сезон: 2 / Серии 1-2 из 10 (Фэррен Блэкберн / Farren Blackburn, Ричард Кларк / Richard Clark, Энди Хэй / Andy Hay) [2015, Великобритания, драма, HDTVRip] MVO [BaibaKo] pb.wtf

Мушкетеры через торрент pb.wtf

Размер: 1.54 GB | Добавлен: 5 лет 10 мес. назад | Торрент скачан:19 раз
Скачать  

05-01-2015 02:57 Мушкетеры Скачать торрент  

Мушкетеры / The Musketeers


  • Год выпуска: 2015
  • Страна: Великобритания
  • Жанр: драма
  • Продолжительность: 00:58:38 (Серия)
  • Перевод: Профессиональный многоголосый закадровый) [BaibaKo]

  • Режиссер: Фэррен Блэкберн / Farren Blackburn, Ричард Кларк / Richard Clark, Энди Хэй / Andy Hay
  • В ролях:

    Люк Паскуалино (D'Artagnan), Том Бёрк (Athos), Ховард Чарльз (Porthos), Сантьяго Кабрера (Aramis), Райан Гейдж (King Louis), Питер Капальди (Cardinal Richelieu), Хьюго Спир (Treville), Тамла Кари (Constance), Александра Доулинг (Queen Anne), Мэйми МакКой (Milady), Богдан Порай (Bonacieux), Шарлотта Хоуп (Charlotte Mellendorf)

  • Описание:
    Мушкетеры собираются на улицах Парижа в семнадцатом веке, где закон и порядок являются больше идеей, чем реальностью. Личные телохранители короля Людовика XIII, Атос, Арамис и Портос решительно стоят за социальную справедливость, за честь, за доблесть, так же за любовь — и за острые ощущения. Как сообщается, сценарист Эдриан Ходжес должен был всего лишь передать антураж того времени, и не зацикливать свое повествоване на точной копировки сюжета романа. Разумеется, мушкетеры получились более задиристые, более отвязные. Они устраивают бучи на улицах Парижа не только потому, что нарушена чьи — то честь и достоинство (а так же и закон, но и для того, чтобы пощекотать свои нервишки, деть куда — нибудь выпирающее через уши г… бурное настроение…
  • Рейтинг:



  • Качество: HDTVRip
  • Формат: :AVI
  • Видео кодек: XviD
  • Аудио кодек: MP3
  • Видео: 720x400 (16:9), 1499 kbps, 25 fps, 0,208 bpp
  • Аудио №1: Русский 2.0 / 48 kHz / 192 kbps
  • Аудио №2: Английский 2.0 / 48 kHz / 192 kbps
  • Релиз от: GEKADOL

    Код:

    Внимание! Раздача ведётся путём добавления новых серий; при каждом добавлении создаётся новый торрент. Чтобы начать докачку новой серии, пользователям необходимо сделать следующее:
    (1) остановить скачивание,
    (2) удалить старый торрент у себя из клиента (старые серии удалять не надо),
    (3) скачать новый торрент и запустить его у себя в клиенте вместо старого, при этом указать клиенту путь в старую папку куда и должно происходить скачивание новых серий.
    Ваш клиент при этом должен произвести хеширование (проверку) старой папки (если не производит сам - помогите ему сделать это), и будет докачивать только те серии которых у вас ещё нет. Старые серии при этом не удаляются, а продолжают раздаваться!
    Eсли вы уже удалили старые серии, то предотвратить повторную закачку старых серий можно, отжав галочку в соответствующих местах при запуске нового торрента. По возможности, желательно не удалять старые серии как можно дольше чтобы релизёр не столько продолжал раздавать старые серии, а смог сконцентрироваться на новых.


    Код:

    General
    Complete name                            : I:\Musketeers (S02) bbk\The.Musketeers.s02e01.HDTVRip.XviD.Rus.Eng.BaibaKo.tv.avi
    Format                                   : AVI
    Format/Info                              : Audio Video Interleave
    File size                                : 796 MiB
    Duration                                 : 58mn 38s
    Overall bit rate                         : 1 898 Kbps
    Writing application                      : VirtualDubMod 1.5.10.2 (build 2540/release)
    Writing library                          : VirtualDubMod build 2540/release

    Video
    ID                                       : 0
    Format                                   : MPEG-4 Visual
    Format profile                           : Advanced Simple@L5
    Format settings, BVOP                    : 2
    Format settings, QPel                    : No
    Format settings, GMC                     : No warppoints
    Format settings, Matrix                  : Default (H.263)
    Codec ID                                 : XVID
    Codec ID/Hint                            : XviD
    Duration                                 : 58mn 38s
    Bit rate                                 : 1 500 Kbps
    Width                                    : 720 pixels
    Height                                   : 400 pixels
    Display aspect ratio                     : 16:9
    Frame rate                               : 25.000 fps
    Color space                              : YUV
    Chroma subsampling                       : 4:2:0
    Bit depth                                : 8 bits
    Scan type                                : Progressive
    Compression mode                         : Lossy
    Bits/(Pixel*Frame)                       : 0.208
    Stream size                              : 629 MiB (79%)
    Writing library                          : XviD 1.2.1 (UTC 2008-12-04)

    Audio #1
    ID                                       : 1
    Format                                   : MPEG Audio
    Format version                           : Version 1
    Format profile                           : Layer 3
    Mode                                     : Joint stereo
    Mode extension                           : MS Stereo
    Codec ID                                 : 55
    Codec ID/Hint                            : MP3
    Duration                                 : 58mn 38s
    Bit rate mode                            : Constant
    Bit rate                                 : 192 Kbps
    Channel(s)                               : 2 channels
    Sampling rate                            : 48.0 KHz
    Compression mode                         : Lossy
    Stream size                              : 80.5 MiB (10%)
    Alignment                                : Aligned on interleaves
    Interleave, duration                     : 40 ms (1.00 video frame)
    Interleave, preload duration             : 504 ms

    Audio #2
    ID                                       : 2
    Format                                   : MPEG Audio
    Format version                           : Version 1
    Format profile                           : Layer 3
    Mode                                     : Joint stereo
    Mode extension                           : MS Stereo
    Codec ID                                 : 55
    Codec ID/Hint                            : MP3
    Duration                                 : 58mn 37s
    Bit rate mode                            : Constant
    Bit rate                                 : 192 Kbps
    Channel(s)                               : 2 channels
    Sampling rate                            : 48.0 KHz
    Compression mode                         : Lossy
    Stream size                              : 80.5 MiB (10%)
    Alignment                                : Aligned on interleaves
    Interleave, duration                     : 40 ms (1.00 video frame)
    Interleave, preload duration             : 504 ms


    Скриншоты:
    скриншот   скриншот   скриншот   скриншот   скриншот  
    скриншот  

    Раздача ведётся путём добавления новых серий. Добавлена 2 серия (17.01.2015).Просьба перекачать торрент файл.

    pb.wtf



  • Скачать Мушкетеры через торрент http://i68.fastpic.ru/big/2015/0105/ab/cb1323f0614adac32967dbc0986a46ab.png Скачать фильм Мушкетеры через торрент бесплантно в хорошем качестве Описание: Мушкетеры собираются на улицах Парижа в семнадцатом веке, где закон и порядок являются больше идеей, чем реальностью. Личные ... 9.9 10 7
    Торрент: Зарегистрирован [2015-01-17 04:51] · скачан: 19 раз
    Статус: √ проверено
    Размер: 1.54 GB
    Как cкачать? Как скачать Мушкетеры через торрент | qTorrent

    % Раздел Тема Автор DL S | L
    Зарубежные сериалы [ 10.68 GB ] Мушкетеры / The Musketeers / Сезон: 2 / Серии 1-8 из 10 [2015 HDTVRip 720p] MVO + Original Assasinca Скачать
    1 | 0
    Зарубежные сериалы [ 6.21 GB ] Мушкетеры / The Musketeers / Сезон: 2 / Серии 1-8 из 10 [2015 HDTVRip] MVO Assasinca Скачать
    1 | 0


    Последний раз редактировалось: GEKADOL (2015-01-17 04:51), всего редактировалось 1 раз

    28-11-2019 20:33  

    Отключить всю рекламу на сайте

    05-01-2015 04:39 Мушкетеры Скачать торрент  

    1 сезон ток начал!вроде бодренько!сценарий вольный......pb.wtf



      Дорогой пользователь! Огромная просьба, поблагодарите релизера, оцените раздачу и оставьте свои комментарий, если Вы скачали Мушкетеры через торрент бесплатно! Внесите свою лепту в развитие PiratBit!
      Комментировать посты могут только пользователи прошедшие не сложную регистрацию
      Показать сообщения:    

      Мушкетеры через торрент
      Скачать бесплатно Мушкетеры
      Мушкетеры скачать торрент
      Мушкетеры смотреть онлайн
      Cкачать фильм Мушкетеры бесплатно
      Мушкетеры скачать торрент в хорошем качестве
      Мушкетеры смотреть онлайн бесплатно в хорошем качестве


      Вы не можете начинать темы
      Вы не можете отвечать на сообщения
      Вы не можете редактировать свои сообщения
      Вы не можете удалять свои сообщения
      Вы не можете голосовать в опросах
      Вы не можете прикреплять файлы к сообщениям
      Вы можете скачивать файлы