Ссылка на приватное зеркало нашего сайта всего за 1$. Внимание количество ограничено!!!

2 сезон

iTunes

1 сезон

1

iTunes

iTunes

iTunes

1 сезон

RePack

30

ИГРА 18+

pack

ВАЖНО

!!Акция!!

Alien_RageХит недели

RePack

MK11
pack

Забери бонус

RePack

jed

!!Акция!!

Alien_Rage

RePack

fifa19

RePack

Assassins Creed: Odyssey

RePack

NEED FOR SPEED™ PAYBACK

4 сезон

9 сезон

Бесстыжие 9 сезон

Все сериалы

все сериалы на PB.wtf

RePack

FAR CRY 5
  

Как выйти замуж за миллионера-2 (Наталья Хлопецкая) / Сезон: 2 / Серии 1-12 (12) [2013г., Комедия, мелодрама, WEB-DLRip] pb.wtf

Как выйти замуж за миллионера-2 через торрент pb.wtf

Размер: 6.46 GB | Добавлен: 5 лет 9 мес. назад | Торрент скачан:277 раз
Скачать  

05-01-2015 12:11 Как выйти замуж за миллионера-2 Скачать торрент  

Как выйти замуж за миллионера-2
Год выпуска: 2013
Страна: Россия / Марсмедиа
Жанр: Комедия, мелодрама
Продолжительность: 00:48:00

Режиссер: Наталья Хлопецкая

В ролях: Любовь Толкалина, Дмитрий Марьянов, Александра Стриженова, Сергей Чирков, Людмила Чурсина, Ксения Радченко (II), Павел Прилучный, Юлия Кокрятская, Виктор Добронравов, Николай Лунин (II), Анна Ровинская, Сергей Петров (II)

Описание: Модельерше-миллионерше Полине Геллер срочно нужен кавалер для сопровождения на важный приём – со своим женихом Леонидом Раевским она в очередной раз поругалась. Полина нанимает на эту роль симпатичного фотографа Стасика. Поначалу юный папарацци отлично справляется с поставленной задачей, но потом нарушает условия контракта и безоглядно влюбляется..

Качество: WEB-DLRip
Формат: AVI
Видео кодек: XviD
Аудио кодек: AC3
Видео: 720x400 (16:9), 25.000 fps, 1 401 Kbps (0.195 bit/pixel)
Аудио#1: 48.0 KHz, 2 ch, 192 Kbps, CBR
Релиз от:
Добавлены 9-12 Серии
Внимание! Раздача ведётся путём добавления новых серий; при каждом добавлении создfётся новый торрент. Чтобы начать докачку новой серии, пользователям необходимо сделать следующее: (1) остановить скачивание, (2) удалить старый торрент у себя из клиента (старые серии удалять не надо), (3) скачать новый торрент и запустить его у себя в клиенте вместо старого, при этом указать клиенту путь в старую папку куда и должно происходить скачивание новых серий.

Ваш клиент при этом должен произвести хеширование (проверку) старой папки (если не производит сам - помогите ему сделать это), и будет докачивать только те серии которых у вас ещё нет. Старые серии при этом не удаляются, а продолжают раздаваться!

Eсли вы уже удалили старые серии, то предотвратить повторную закачку старых серий можно, отжав галочку в соответсвующих местах при запуске нового торрента.
скриншот   скриншот   скриншот   скриншот   скриншот   скриншот   скриншот   скриншот  

Общее
Полное имя : H:\Как выйти замуж за миллионера 2\Kak.vyiti.zamuzh.za.millionera-2.WEB-DL.MediaClub\Kak.vyiti.zamuzh.za.millionera-2.(02.seriya.iz.12).WEB-DL.MediaClub.avi
Формат : AVI
Формат/Информация : Audio Video Interleave
Размер файла : 551 Мбайт
Продолжительность : 48 м.
Общий поток : 1603 Кбит/сек
Программа кодирования : VirtualDubMod 1.5.10.3 | www.virtualdub-fr.org || (build 2550/release)
Библиотека кодирования : VirtualDubMod build 2550/release

Видео
Идентификатор : 0
Формат : MPEG-4 Visual
Профиль формата : Advanced Simple@L5
Параметр BVOP формата : 1
Параметр QPel формата : Нет
Параметр GMC формата : Без точки перехода
Параметр матрицы формата : Выборочная
Идентификатор кодека : XVID
Идентификатор кодека/Подсказка : XviD
Продолжительность : 48 м.
Битрейт : 1401 Кбит/сек
Ширина : 720 пикселей
Высота : 400 пикселей
Соотношение сторон : 16:9
Частота кадров : 25,000 кадров/сек
Цветовое пространство : YUV
Субдискретизация насыщенности : 4:2:0
Битовая глубина : 8 бит
Тип развёртки : Прогрессивная
Метод сжатия : С потерями
Бит/(Пиксели*Кадры) : 0.195
Размер потока : 482 Мбайт (87%)
Библиотека кодирования : XviD 73

Аудио
Идентификатор : 1
Формат : AC-3
Формат/Информация : Audio Coding 3
Расширение режима : CM (complete main)
Параметр Endianness формата : Big
Идентификатор кодека : 2000
Продолжительность : 48 м.
Вид битрейта : Постоянный
Битрейт : 192 Кбит/сек
Каналы : 2 канала
Расположение каналов : Front: L R
Частота : 48,0 КГц
Битовая глубина : 16 бит
Метод сжатия : С потерями
Размер потока : 66,0 Мбайт (12%)
Выравнивание : Разделение по промежуткам
Продолжительность промежутка : 40 мс. (1,00 видеокадр)
Время предзагрузки промежутка : 500 мс.


Как выйти замуж за миллионера-2 скачать торрент


pb.wtf



Скачать Как выйти замуж за миллионера-2 через торрент http://pic.kartinco.top/images/8/phzk6.jpg Скачать фильм Как выйти замуж за миллионера-2 через торрент бесплантно в хорошем качестве Описание: Модельерше-миллионерше Полине Геллер срочно нужен кавалер для сопровождения на важный приём – со своим женихом Леонидом Раевским ... 7.8 10 13
Info! Золотая раздача, скачанное не засчитывается.
Торрент: Зарегистрирован [2015-01-06 10:04] · скачан: 277 раз
Статус: √ проверено
Размер: 6.46 GB
Как cкачать? Как скачать Как выйти замуж за миллионера-2 через торрент | qTorrent

% Раздел Тема Автор DL S | L
Наши сериалы [ 16.3 GB ] Как выйти замуж за миллионера-2 / Сезон: 2 / Серии 1-12 [2013 WEB-DLRip 1080p] Assasinca Скачать
1 | 0


Последний раз редактировалось: Assasinca (2015-01-06 10:04), всего редактировалось 1 раз

28-11-2019 20:33  

Отключить всю рекламу на сайте

05-01-2015 12:16 Как выйти замуж за миллионера-2 Скачать торрент  

Assasinca, http://www.kinopoisk.ru/film/762230/ год 2013 и полный сезон уже вышел, так что 15 убираем.pb.wtf



28-03-2015 01:08 Как выйти замуж за миллионера-2 Скачать торрент  

как ТП найти себе "папика" sarcastic sarcasticpb.wtf



    Дорогой пользователь! Огромная просьба, поблагодарите релизера, оцените раздачу и оставьте свои комментарий, если Вы скачали Как выйти замуж за миллионера-2 через торрент бесплатно! Внесите свою лепту в развитие PiratBit!
    Комментировать посты могут только пользователи прошедшие не сложную регистрацию
    Показать сообщения:    

    Как выйти замуж за миллионера-2 через торрент
    Скачать бесплатно Как выйти замуж за миллионера-2
    Как выйти замуж за миллионера-2 скачать торрент
    Как выйти замуж за миллионера-2 смотреть онлайн
    Cкачать фильм Как выйти замуж за миллионера-2 бесплатно
    Как выйти замуж за миллионера-2 скачать торрент в хорошем качестве
    Как выйти замуж за миллионера-2 смотреть онлайн бесплатно в хорошем качестве


    Вы не можете начинать темы
    Вы не можете отвечать на сообщения
    Вы не можете редактировать свои сообщения
    Вы не можете удалять свои сообщения
    Вы не можете голосовать в опросах
    Вы не можете прикреплять файлы к сообщениям
    Вы можете скачивать файлы