Ссылка на приватное зеркало нашего сайта всего за 1$. Внимание количество ограничено!!!

2 сезон

iTunes

1 сезон

1

iTunes

iTunes

iTunes

1 сезон

RePack

30

ИГРА 18+

pack

ВАЖНО

!!Акция!!

Alien_RageХит недели

RePack

MK11
pack

Забери бонус

RePack

jed

!!Акция!!

Alien_Rage

RePack

fifa19

RePack

Assassins Creed: Odyssey

RePack

NEED FOR SPEED™ PAYBACK

4 сезон

9 сезон

Бесстыжие 9 сезон

Все сериалы

все сериалы на PB.wtf

RePack

FAR CRY 5
  

Клык / Kynodontas (Йоргос Лантимос / Yorgos Lanthimos) [US Transfer] [2009, Греция, драма, BDRip 720p] Одноголосый закадровый [Лицензия] + Original + Subs от R.G. PiratFilms pb.wtf

Клык через торрент pb.wtf

Размер: 8.09 GB | Добавлен: 5 лет 9 мес. назад | Торрент скачан:122 раза
Скачать  

05-01-2015 14:32 Клык Скачать торрент  

Клык / Kynodontas
«The cat is the most feared animal there is!»
Год выпуска: 2009
Страна: Греция
Жанр: драма
Продолжительность: 01:36:54
Перевод:
|Профессиональный (одноголосый, закадровый), Лицензия, R5 *|
Субтитры: русские (Forced, Full), английские (Full), Greek (Full)

Режиссер: Йоргос Лантимос / Yorgos Lanthimos
В ролях: Кристос Стергиоглоу (Father), Мишель Вэлли (Mother), Аггелики Папоулья (Older Daughter), Христос Пассалис (Son), Мари Тсони (Younger Daughter), Анна Калаицидоу (Christina), Стив Крикрис (Colleague), Сисси Петропулу (Secretary), Александр Вулгарис (Dog trainer)
Описание:
В доме на окраине города живут мать, отец и трое детей. Дом окружен высоким забором, за который дети никогда не выходили. Они растут, развлекаются, учатся и играют так, как считают нужным их родители, не испытывая никакого влияния со стороны. Они верят, что самолеты, пролетающие над ними, игрушечные, а «зомби» - это название желтого цветочка.
Войти в дом из внешнего мира может только Кристина. В компании главы семейства она работает охранником. Ее приглашают для того, чтобы сын с ее помощью удовлетворял свои сексуальные потребности. Взрослые дети знают главный закон семьи: «нельзя покинуть дом, до тех пор, пока у тебя не выпадет правый клык». Они уже давно живут в ожидании этого момента, не подозревая, что он не наступит никогда...

Рейтинг
Каннский кинофестиваль, 2009 год Победитель:
Особый взгляд Каннского кинофестиваля
Оскар, 2011 год Номинации:
Лучший фильм на иностранном языке — «Греция»

Качество: BDRip 720p|Исходник: 1080p Blu-ray AVC DTS-HD MA 5.1-MaLLIeHbKa
Формат: MKV
Видео кодек: AVC
Аудио кодек: DTS
Видео: AVC, 1280x544 (2.35:1), 8927 kbps, 23,976 fps, 0,535 bpp
Аудио №1: русский / DTS / 5.1 / 48 kHz / 1510 kbps / 16 bit |VO, Лицензия (R5) *|
Аудио №2: Greek / DTS / 5.1 / 48 kHz / 1510 kbps / 16 bit
Оформление: Messa-fan
Рип: by Messa-fan
* Дорожка №1 получена пофразовым наложением выделенного голоса переводчика на центр декодированного DTS-HD MA. За дорожку большое спасибо MaLLIeHbKa.
Перевод - Людмила Скалова
За постер спасибо Ворон
Фильм настоятельно не рекомендуется лицам не достигшим 18 лет.

Код:

x264 [info]: frame I:686   Avg QP:16.79  size:151849
x264 [info]: frame P:23215 Avg QP:18.43  size: 84378
x264 [info]: frame B:115516 Avg QP:20.56  size: 38313
x264 [info]: consecutive B-frames:  0.8%  0.5%  1.7%  7.8%  9.6% 46.3% 11.7%  4.9%  5.9%  3.6%  3.2%  2.9%  1.1%

Код:

neral
Unique ID                                : 198568284160719687380198629507451400572 (0x9562DC464263C61BB3E2DF10285D317C)
Complete name                            : AHFW\Kynodontas.2009.BDRip.720p.Rus.Gre.Sub.mkv
Format                                   : Matroska
Format version                           : Version 4 / Version 2
File size                                : 8.09 GiB
Duration                                 : 1h 36mn
Overall bit rate                         : 11.9 Mbps
Movie name                               : Kynodontas 2009 BDRip 720p encode by messafan
Encoded date                             : UTC 2015-01-05 11:01:12
Writing application                      : mkvmerge v6.7.0 ('Back to the Ground') 64bit built on Jan  8 2014 15:10:52
Writing library                          : libebml v1.3.0 + libmatroska v1.4.1

Video
ID                                       : 1
Format                                   : AVC
Format/Info                              : Advanced Video Codec
Format profile                           : High@L4.1
Format settings, CABAC                   : Yes
Format settings, ReFrames                : 11 frames
Codec ID                                 : V_MPEG4/ISO/AVC
Duration                                 : 1h 36mn
Bit rate                                 : 8 927 Kbps
Width                                    : 1 280 pixels
Height                                   : 544 pixels
Display aspect ratio                     : 2.35:1
Frame rate mode                          : Constant
Frame rate                               : 23.976 fps
Color space                              : YUV
Chroma subsampling                       : 4:2:0
Bit depth                                : 8 bits
Scan type                                : Progressive
Bits/(Pixel*Frame)                       : 0.535
Stream size                              : 5.88 GiB (73%)
Title                                    : Kynodontas 2009 BDRip 720p encode by messafan
Writing library                          : x264 core 142 r2479kMod dd79a61
Encoding settings                        : cabac=1 / ref=11 / deblock=1:-3:-3 / analyse=0x3:0x113 / me=umh / subme=10 / psy=1 / fade_compensate=0.00 / psy_rd=1.02:0.04 / mixed_ref=1 / me_range=32 / chroma_me=1 / trellis=2 / 8x8dct=1 / cqm=0 / deadzone=21,11 / fast_pskip=0 / chroma_qp_offset=-5 / threads=6 / lookahead_threads=1 / sliced_threads=0 / nr=0 / decimate=1 / interlaced=0 / bluray_compat=0 / constrained_intra=0 / fgo=0 / bframes=12 / b_pyramid=2 / b_adapt=2 / b_bias=0 / direct=3 / weightb=1 / open_gop=0 / weightp=1 / keyint=250 / keyint_min=23 / scenecut=40 / intra_refresh=0 / rc_lookahead=40 / rc=2pass / mbtree=0 / bitrate=8927 / ratetol=1.0 / qcomp=0.70 / qpmin=0 / qpmax=69 / qpstep=4 / cplxblur=20.0 / qblur=0.5 / vbv_maxrate=50000 / vbv_bufsize=62500 / nal_hrd=none / filler=0 / ip_ratio=1.25 / pb_ratio=1.30 / aq=1:0.70
Language                                 : English
Default                                  : Yes
Forced                                   : No

Audio #1
ID                                       : 2
Format                                   : DTS
Format/Info                              : Digital Theater Systems
Mode                                     : 16
Format settings, Endianness              : Big
Codec ID                                 : A_DTS
Duration                                 : 1h 36mn
Bit rate mode                            : Constant
Bit rate                                 : 1 509 Kbps
Channel(s)                               : 6 channels
Channel positions                        : Front: L C R, Side: L R, LFE
Sampling rate                            : 48.0 KHz
Bit depth                                : 16 bits
Compression mode                         : Lossy
Stream size                              : 1.02 GiB (13%)
Title                                    : VO (R5)
Language                                 : Russian
Default                                  : Yes
Forced                                   : No

Audio #2
ID                                       : 3
Format                                   : DTS
Format/Info                              : Digital Theater Systems
Mode                                     : 16
Format settings, Endianness              : Big
Codec ID                                 : A_DTS
Duration                                 : 1h 36mn
Bit rate mode                            : Constant
Bit rate                                 : 1 509 Kbps
Channel(s)                               : 6 channels
Channel positions                        : Front: L C R, Side: L R, LFE
Sampling rate                            : 48.0 KHz
Bit depth                                : 16 bits
Compression mode                         : Lossy
Stream size                              : 1.02 GiB (13%)
Title                                    : Original Greek
Language                                 : Greek
Default                                  : No
Forced                                   : No

Text #1
ID                                       : 4
Format                                   : UTF-8
Codec ID                                 : S_TEXT/UTF8
Codec ID/Info                            : UTF-8 Plain Text
Title                                    : Rus Forced
Language                                 : Russian
Default                                  : Yes
Forced                                   : No

Text #2
ID                                       : 5
Format                                   : UTF-8
Codec ID                                 : S_TEXT/UTF8
Codec ID/Info                            : UTF-8 Plain Text
Title                                    : Rus Full
Language                                 : Russian
Default                                  : No
Forced                                   : No

Text #3
ID                                       : 6
Format                                   : UTF-8
Codec ID                                 : S_TEXT/UTF8
Codec ID/Info                            : UTF-8 Plain Text
Title                                    : English Full
Language                                 : English
Default                                  : No
Forced                                   : No

Text #4
ID                                       : 7
Format                                   : UTF-8
Codec ID                                 : S_TEXT/UTF8
Codec ID/Info                            : UTF-8 Plain Text
Title                                    : Greek Full
Language                                 : Greek
Default                                  : No
Forced                                   : No

Menu
00:00:00.000                             : en:Opening Titles
00:03:20.742                             : en:A Special Guest
00:11:19.012                             : en:Tranquility
00:23:53.557                             : en:Dogs and Masters
00:33:16.203                             : en:Christina Returns
00:42:21.581                             : en:Cat
00:48:32.618                             : en:A New Sibling
00:57:10.719                             : en:Song and Dance
01:00:32.295                             : en:Bad Influences
01:12:21.546                             : en:Replacing Christina
01:21:13.160                             : en:Celebration
01:25:14.693                             : en:Ready to Leave


pb.wtf



Скачать Клык через торрент http://i66.fastpic.ru/big/2015/0105/bf/eb67d68fadad7c704dd4393f8f2bdebf.png Скачать фильм Клык через торрент бесплантно в хорошем качестве Описание: В доме на окраине города живут мать, отец и трое детей. Дом окружен высоким забором, за который дети никогда не выходили. Они ... 9.1 10 13
Info! Золотая раздача, скачанное не засчитывается.
Торрент: Зарегистрирован [2015-01-05 14:32] · скачан: 122 раз
Статус: √ проверено
Размер: 8.09 GB
Как cкачать? Как скачать Клык через торрент | qTorrent

28-11-2019 20:33  

Отключить всю рекламу на сайте

10-09-2016 07:27 Клык Скачать торрент  

Скачать фильм нереально, 1 человек раздаёт всего, уже больше 2 часов его качаю. Скорость в 10 раз ниже нормы, встаньте на раздачу, а...pb.wtf



    Дорогой пользователь! Огромная просьба, поблагодарите релизера, оцените раздачу и оставьте свои комментарий, если Вы скачали Клык через торрент бесплатно! Внесите свою лепту в развитие PiratBit!
    Комментировать посты могут только пользователи прошедшие не сложную регистрацию
    Показать сообщения:    

    Клык через торрент
    Скачать бесплатно Клык
    Клык скачать торрент
    Клык смотреть онлайн
    Cкачать фильм Клык бесплатно
    Клык скачать торрент в хорошем качестве
    Клык смотреть онлайн бесплатно в хорошем качестве


    Вы не можете начинать темы
    Вы не можете отвечать на сообщения
    Вы не можете редактировать свои сообщения
    Вы не можете удалять свои сообщения
    Вы не можете голосовать в опросах
    Вы не можете прикреплять файлы к сообщениям
    Вы можете скачивать файлы