Anonymous, добрый день, присоединяйтесь к нам в Telegram!, здесь всегда актуальный адрес сайта, оперативная поддержка и многое другое!

>

5.5

iTunes

7.4

iTunes

7.9

iTunes

1

7.7

1 сезон

6.8

iTunes

7.3

1 сезон

13

6.7

1 сезон

8.3

RePack

30

ULTIMATE

pack

9.9

Лицензия

ВАЖНО

ИГРА 18+

pack

7.3

RePack

MK11

7.7

RePack

jed

7.8

RePack

fifa19

8.5

RePack

RDR2

RePack

NEED FOR SPEED™ PAYBACK

4 сезон

9 сезон

Бесстыжие 9 сезон

Все сериалы

все сериалы на PB.wtf

RePack

FAR CRY 5

Anonymous, добрый день, мы катастрофически не успеваем собрать деньги на оплату серверов, помогите нам пожалуйста 5,10,15р., для нас важна любая помощь . В качестве благодарности мы отключим Вам всю рекламу на сайте (укажите свой ник в строку Ваше имя)!

×
  
Magnet ссылка

Черепашки-ниндзя: Антология / Teenage Mutant Ninja Turtles: Antology [1990-2014, США, Гонконг, фантастика, боевик, комедия, BDRip 1080p / 60 FPS, Профессиональный многоголосый, дубляж] pb.wtf

Черепашки-ниндзя: Антология через торрент pb.wtf

Качают: 2 [ 0 KB/s ]
Размер: 47.85 GB | Добавлен: 6 лет 9 мес. назад | Торрент скачан:162 раза
Смотреть онлайн Черепашки-ниндзя: Антология | Скачать    Ребята, помогите собрать деньги на оплату серверов!!!

05-01-2015 18:54 Черепашки-ниндзя: Антология Скачать торрент  

sega18611 , всей команде R.G HD-Films и всем тем кто кто ценит подобные релизы.
Черепашки-ниндзя / Teenage Mutant Ninja Turtles«Heroes in a half shell!»



Год выпуска: 1990
Страна: США, Гонконг
Жанр: фантастика, боевик, комедия
Продолжительность: 01:33:55
Перевод: Профессиональный многоголосый
Субтитры:русские (Полные), английские (Полные)
Режиссер:Стив Бэррон / Steve Barron
В ролях:

Джудит Хоаг (April O'Neil), Элиас Котеас (Casey Jones), Джош Пэйс (Raphael, озвучка / Passenger In Cab), Дэвид Форман (Leonardo / Gang Member), Брайан Точи (Leonardo, озвучка), Лейф Тильден (Donatello / Foot Messenger), Мишлен Систи (Michaelangelo / Pizza Man), Робби Рист (Michaelangelo, озвучка), Кевин Клэш (Splinter, озвучка), Джеймс Саито (The Shredder / Oroko Saki), Дэвид МакЧарен (The Shredder / Oroku Saki, озвучка), Сэм Рокуэлл (Head Thug)
Описание:
Четыре черепашки и крыса в канализационных трубах Нью-Йорка вляпались в радиационные отходы, мутировали и превратились в человеческого роста разумных черепашек, а крыса, которая раньше жила у японского мастера ниндзя-цу, обучила их боевым искусствам.
Черепашки Леонардо, Рафаэль, Микеланджело и Донателло подружились с тележурналисткой и помогли остановить рост молодежной преступности.

Автор рипа:Tiberiumsun69
Качество: BDRip 1080p / 60 FPS
Формат: MKV
Видео кодек: AVC
Аудио кодек:AC3
Видео: 1920x1080 (16:9), 15000 kbps, 59,940 fps
Аудио №1: русский/ 5.1/ 48 kHz/ 448 kbps/ AC3/ |Многоголосый, закадровый ТО "Немое кино"|
Аудио №2: английский/ 5.1/ 48 kHz/ 640 kbps/ AC3
Навигация по главам: есть


Код:

General
Unique ID                                : 193469686072123785134874090554426342553 (0x918CE7FB00BD51C281C3A7EAC8133C99)
Complete name                            : A:\1080p 60fps\Черепашки-ниндзя\1) Черепашки-ниндзя (1990) 1080p 60fps.mkv
Format                                   : Matroska
Format version                           : Version 4 / Version 2
File size                                : 10.5 GiB
Duration                                 : 1h 33mn
Overall bit rate                         : 16.1 Mbps
Movie name                               : R.G. HD-Films by Tiberiumsun69 60fps
Encoded date                             : UTC 2015-01-05 12:57:45
Writing application                      : mkvmerge v7.4.0 ('Circles') 64bit built on Dec 12 2014 12:19:56
Writing library                          : libebml v1.3.0 + libmatroska v1.4.1
Attachment                               : Yes

Video
ID                                       : 1
Format                                   : AVC
Format/Info                              : Advanced Video Codec
Format profile                           : High@L4.1
Format settings, CABAC                   : Yes
Format settings, ReFrames                : 4 frames
Codec ID                                 : V_MPEG4/ISO/AVC
Duration                                 : 1h 33mn
Bit rate                                 : 15.0 Mbps
Width                                    : 1 920 pixels
Height                                   : 1 080 pixels
Display aspect ratio                     : 16:9
Frame rate                               : 59.940 fps
Color space                              : YUV
Chroma subsampling                       : 4:2:0
Bit depth                                : 8 bits
Scan type                                : Progressive
Bits/(Pixel*Frame)                       : 0.121
Stream size                              : 9.62 GiB (91%)
Title                                    : R.G. HD-Films by Tiberiumsun69 60fps
Writing library                          : x264 core 142 r2491 24e4fed
Encoding settings                        : cabac=1 / ref=4 / deblock=1:-1:-1 / analyse=0x3:0 / me=umh / subme=10 / psy=1 / psy_rd=1.00:0.00 / mixed_ref=1 / me_range=32 / chroma_me=0 / trellis=2 / 8x8dct=1 / cqm=0 / deadzone=21,11 / fast_pskip=1 / chroma_qp_offset=-2 / threads=12 / lookahead_threads=1 / sliced_threads=0 / nr=0 / decimate=1 / interlaced=0 / bluray_compat=0 / constrained_intra=0 / bframes=5 / b_pyramid=2 / b_adapt=2 / b_bias=0 / direct=3 / weightb=1 / open_gop=0 / weightp=2 / keyint=250 / keyint_min=59 / scenecut=40 / intra_refresh=0 / rc=2pass / mbtree=0 / bitrate=15000 / ratetol=1.0 / qcomp=0.80 / qpmin=0 / qpmax=69 / qpstep=4 / cplxblur=20.0 / qblur=0.5 / ip_ratio=1.40 / pb_ratio=1.30 / aq=1:1.00
Language                                 : English
Default                                  : Yes
Forced                                   : No

Audio #1
ID                                       : 2
Format                                   : AC-3
Format/Info                              : Audio Coding 3
Mode extension                           : CM (complete main)
Codec ID                                 : A_AC3
Duration                                 : 1h 33mn
Bit rate mode                            : Constant
Bit rate                                 : 448 Kbps
Channel(s)                               : 6 channels
Channel positions                        : Front: L C R, Side: L R, LFE
Sampling rate                            : 48.0 KHz
Bit depth                                : 16 bits
Compression mode                         : Lossy
Stream size                              : 301 MiB (3%)
Title                                    : Многоголосый, закадровый ТО "Немое кино"
Language                                 : Russian
Default                                  : Yes
Forced                                   : No

Audio #2
ID                                       : 3
Format                                   : AC-3
Format/Info                              : Audio Coding 3
Mode extension                           : CM (complete main)
Codec ID                                 : A_AC3
Duration                                 : 1h 33mn
Bit rate mode                            : Constant
Bit rate                                 : 640 Kbps
Channel(s)                               : 6 channels
Channel positions                        : Front: L C R, Side: L R, LFE
Sampling rate                            : 48.0 KHz
Bit depth                                : 16 bits
Compression mode                         : Lossy
Stream size                              : 430 MiB (4%)
Title                                    : Оригинал
Language                                 : English
Default                                  : No
Forced                                   : No

Text #1
ID                                       : 4
Format                                   : UTF-8
Codec ID                                 : S_TEXT/UTF8
Codec ID/Info                            : UTF-8 Plain Text
Title                                    : Полные
Language                                 : Russian
Default                                  : No
Forced                                   : No

Text #2
ID                                       : 5
Format                                   : UTF-8
Codec ID                                 : S_TEXT/UTF8
Codec ID/Info                            : UTF-8 Plain Text
Title                                    : Полные
Language                                 : English
Default                                  : No
Forced                                   : No

Menu
00:00:21.000                             : Chapter 1
00:05:16.294                             : Chapter 2
00:09:35.595                             : Chapter 3
00:11:39.511                             : Chapter 4
00:14:56.916                             : Chapter 5
00:16:28.965                             : Chapter 6
00:19:35.111                             : Chapter 7
00:21:36.607                             : Chapter 8
00:26:27.898                             : Chapter 9
00:27:42.139                             : Chapter 10
00:28:41.699                             : Chapter 11
00:33:31.321                             : Chapter 12
00:36:43.054                             : Chapter 13
00:49:50.466                             : Chapter 14
00:55:56.040                             : Chapter 15
00:59:18.825                             : Chapter 16
01:06:27.045                             : Chapter 17
01:12:25.653                             : Chapter 18
01:17:06.684                             : Chapter 19
01:24:35.506                             : Chapter 20

..::Скриншоты::..
Черепашки-ниндзя 2: Тайна изумрудного зелья / Teenage Mutant Ninja Turtles II: The Secret of the Ooze«Back by bodacious demand»



Год выпуска: 1991
Страна: США, Гонконг
Жанр: фантастика, боевик, комедия, приключения, семейный
Продолжительность: 01:28:55
Перевод: Профессиональный многоголосый
Субтитры:русские (Полные), английские (Полные)
Режиссер:Майкл Прессман / Michael Pressman
В ролях:

Пейдж Турко (April O'Neil), Дэвид Уорнер (Professor Jordon Perry), Мишлен Систи (Michaelangelo / Soho Man), Лейф Тильден (Donatello / Foot #3), Кенн Скотт (Raphael), Марк Казо (Leonardo / News Room Staff), Кевин Клэш (Splinter), Эрни Рейес мл. (Keno), Франсуа Чау (Shredder), Тоширо Обата (Tatsu), Рэймонд Серра (Chief Sterns), Марк Джинтер (Rahzar)
Описание:
Они снова сражаются со злодеями из клана Футов и их главарем Шредером. Благодаря Эйприл О`Нил, профессору Джордану Пери и разносчику пиццы Кено черепашкам удается остановить распространение мутирующего вещества мутагена и спасти жителей Нью-Йорка от страшных мутантов Токка и Разара.

Автор рипа:Tiberiumsun69
Качество: BDRip 1080p / 60 FPS
Формат: MKV
Видео кодек: AVC
Аудио кодек:AC3
Видео: 1920x1040 (16:9), 14400 kbps, 59,940 fps
Аудио №1: русский/ 2.0/ 48 kHz/ 192 kbps/ AC3/ |Многоголосый, закадровый FOX|
Аудио №2: русский/ 2.0/ 48 kHz/ 192 kbps/ AC3/ |Многоголосый, закадровый Рен ТВ|
Аудио №3: русский/ 5.1/ 48 kHz/ 384 kbps/ AC3/ |Двухголосый, закадровый Новый канал|
Аудио №4: английский/ 5.1/ 48 kHz/ 640 kbps/ AC3
Навигация по главам: есть


Код:

General
Unique ID                                : 201741200548017629227782804012640495726 (0x97C5F1215ADC6CCC8E1B713FDBFBE86E)
Complete name                            : A:\1080p 60fps\Черепашки-ниндзя\2) Черепашки-ниндзя 2 Тайна изумрудного зелья 1080p 60fps.mkv
Format                                   : Matroska
Format version                           : Version 4 / Version 2
File size                                : 9.80 GiB
Duration                                 : 1h 28mn
Overall bit rate                         : 15.8 Mbps
Movie name                               : R.G. HD-Films by Tiberiumsun69 60fps
Encoded date                             : UTC 2015-01-05 13:40:35
Writing application                      : mkvmerge v7.4.0 ('Circles') 64bit built on Dec 12 2014 12:19:56
Writing library                          : libebml v1.3.0 + libmatroska v1.4.1
Attachment                               : Yes

Video
ID                                       : 1
Format                                   : AVC
Format/Info                              : Advanced Video Codec
Format profile                           : High@L4.1
Format settings, CABAC                   : Yes
Format settings, ReFrames                : 4 frames
Codec ID                                 : V_MPEG4/ISO/AVC
Duration                                 : 1h 28mn
Bit rate                                 : 14.4 Mbps
Width                                    : 1 920 pixels
Height                                   : 1 040 pixels
Display aspect ratio                     : 16:9
Frame rate                               : 59.940 fps
Color space                              : YUV
Chroma subsampling                       : 4:2:0
Bit depth                                : 8 bits
Scan type                                : Progressive
Bits/(Pixel*Frame)                       : 0.120
Stream size                              : 8.73 GiB (89%)
Title                                    : R.G. HD-Films by Tiberiumsun69 60fps
Writing library                          : x264 core 142 r2491 24e4fed
Encoding settings                        : cabac=1 / ref=4 / deblock=1:-1:-1 / analyse=0x3:0 / me=umh / subme=10 / psy=1 / psy_rd=1.00:0.00 / mixed_ref=1 / me_range=32 / chroma_me=0 / trellis=2 / 8x8dct=1 / cqm=0 / deadzone=21,11 / fast_pskip=1 / chroma_qp_offset=-2 / threads=12 / lookahead_threads=1 / sliced_threads=0 / nr=0 / decimate=1 / interlaced=0 / bluray_compat=0 / constrained_intra=0 / bframes=5 / b_pyramid=2 / b_adapt=2 / b_bias=0 / direct=3 / weightb=1 / open_gop=0 / weightp=2 / keyint=250 / keyint_min=59 / scenecut=40 / intra_refresh=0 / rc=2pass / mbtree=0 / bitrate=14400 / ratetol=1.0 / qcomp=0.80 / qpmin=0 / qpmax=69 / qpstep=4 / cplxblur=20.0 / qblur=0.5 / ip_ratio=1.40 / pb_ratio=1.30 / aq=1:1.00
Language                                 : English
Default                                  : Yes
Forced                                   : No

Audio #1
ID                                       : 2
Format                                   : AC-3
Format/Info                              : Audio Coding 3
Mode extension                           : CM (complete main)
Codec ID                                 : A_AC3
Duration                                 : 1h 28mn
Bit rate mode                            : Constant
Bit rate                                 : 192 Kbps
Channel(s)                               : 2 channels
Channel positions                        : Front: L R
Sampling rate                            : 48.0 KHz
Bit depth                                : 16 bits
Compression mode                         : Lossy
Stream size                              : 122 MiB (1%)
Title                                    : Многоголосый, закадровый FOX
Language                                 : Russian
Default                                  : Yes
Forced                                   : No

Audio #2
ID                                       : 3
Format                                   : AC-3
Format/Info                              : Audio Coding 3
Mode extension                           : CM (complete main)
Codec ID                                 : A_AC3
Duration                                 : 1h 28mn
Bit rate mode                            : Constant
Bit rate                                 : 192 Kbps
Channel(s)                               : 2 channels
Channel positions                        : Front: L R
Sampling rate                            : 48.0 KHz
Bit depth                                : 16 bits
Compression mode                         : Lossy
Stream size                              : 122 MiB (1%)
Title                                    : Многоголосый, закадровый Рен ТВ
Language                                 : Russian
Default                                  : No
Forced                                   : No

Audio #3
ID                                       : 4
Format                                   : AC-3
Format/Info                              : Audio Coding 3
Mode extension                           : CM (complete main)
Codec ID                                 : A_AC3
Duration                                 : 1h 28mn
Bit rate mode                            : Constant
Bit rate                                 : 384 Kbps
Channel(s)                               : 6 channels
Channel positions                        : Front: L C R, Side: L R, LFE
Sampling rate                            : 48.0 KHz
Bit depth                                : 16 bits
Compression mode                         : Lossy
Stream size                              : 244 MiB (2%)
Title                                    : Двухголосый, закадровый Новый канал
Language                                 : Russian
Default                                  : No
Forced                                   : No

Audio #4
ID                                       : 5
Format                                   : AC-3
Format/Info                              : Audio Coding 3
Mode extension                           : CM (complete main)
Codec ID                                 : A_AC3
Duration                                 : 1h 28mn
Bit rate mode                            : Constant
Bit rate                                 : 640 Kbps
Channel(s)                               : 6 channels
Channel positions                        : Front: L C R, Side: L R, LFE
Sampling rate                            : 48.0 KHz
Bit depth                                : 16 bits
Compression mode                         : Lossy
Stream size                              : 407 MiB (4%)
Title                                    : Оригинал
Language                                 : English
Default                                  : No
Forced                                   : No

Text #1
ID                                       : 6
Format                                   : UTF-8
Codec ID                                 : S_TEXT/UTF8
Codec ID/Info                            : UTF-8 Plain Text
Title                                    : Полные
Language                                 : Russian
Default                                  : No
Forced                                   : No

Text #2
ID                                       : 7
Format                                   : UTF-8
Codec ID                                 : S_TEXT/UTF8
Codec ID/Info                            : UTF-8 Plain Text
Title                                    : Полные
Language                                 : English
Default                                  : No
Forced                                   : No

Menu
00:00:21.000                             : ru:00:00:21.000000000
00:05:21.000                             : :00:05:21.000000000
00:10:21.000                             : :00:10:21.000000000
00:15:21.000                             : :00:15:21.000000000
00:20:21.000                             : :00:20:21.000000000
00:25:21.000                             : :00:25:21.000000000
00:30:21.000                             : :00:30:21.000000000
00:35:21.000                             : :00:35:21.000000000
00:40:21.000                             : :00:40:21.000000000
00:45:21.000                             : :00:45:21.000000000
00:50:21.000                             : :00:50:21.000000000
00:55:21.000                             : :00:55:21.000000000
01:00:21.000                             : :01:00:21.000000000
01:05:21.000                             : :01:05:21.000000000
01:10:21.000                             : :01:10:21.000000000
01:15:21.000                             : :01:15:21.000000000
01:20:21.000                             : :01:20:21.000000000
01:25:21.000                             : :01:25:21.000000000

..::Скриншоты::..
Черепашки-ниндзя 3 / Teenage Mutant Ninja Turtles III«Ancient Japan, 1603. Without a map. Without a clue. Without a pizza»



Год выпуска: 1992
Страна: США, Гонконг
Жанр: фантастика, фэнтези, боевик, комедия, приключения, семейный
Продолжительность: 01:36:08
Перевод: Профессиональный многоголосый
Субтитры:русские (Полные), английские (Полные)
Режиссер:Стюарт Гиллард / Stuart Gillard
В ролях:

Пейдж Турко (April O'Neil), Стюарт Уилсон (Walker), Саб Симоно (Lord Norinaga), Вивиан Ву (Mitsu), Марк Казо (Leonardo), Кори Фельдман (Donatello / озвучка), Мэтт Хилл (Raphael), Джим Рапоса (Donatello), Дэвид Фрайзер (Michaelangelo), Элиас Котеас (Casey Jones / Whit), Джеймс Мюррэй (Splinter), Эйдан Ханзей (Kenshin)
Описание:
Эйприл где-то на распродаже купила Сплинтеру старинный японский скипетр, и ещё всяких других подарков для своих друзей черепашек. Как выяснилось, этот скипетр - не просто обычный антиквариат, а прообраз машины времени. Но он работает только в том случае, когда вес путешественников во времени одинаков с обоих сторон.
Так случилось, что скипетр перенес Эйприл в феодальную Японию, в 1603-й год. Следом за ней отправились и черепашки, но вот беда, вместо того, чтобы попасть в храм, где по идее должен был находится скипетр, они оказываются посреди поля сражения. Во всей этой неразберихе теряется Микеланджело со скипетром. И теперь черепашкам нужно не только спасти Эйприл, но и вернуть скипетр. В нашем времени в этот момент тоже совсем не скучно.

Автор рипа:Tiberiumsun69
Качество: BDRip 1080p / 60 FPS
Формат: MKV
Видео кодек: AVC
Аудио кодек:AC3
Видео: 1920x1080 (16:9), 15000 kbps, 59,940 fps
Аудио №1: русский/ 5.1/ 48 kHz/ 640 kbps/ AC3/ |Многоголосый, закадровый FOX|
Аудио №2: русский/ 2.0/ 48 kHz/ 192 kbps/ AC3/ |Многоголосый, закадровый Рен ТВ|
Аудио №3: русский/ 5.1/ 48 kHz/ 384 kbps/ AC3/ |Двухголосый, закадровый Новый канал|
Аудио №4: английский/ 5.1/ 48 kHz/ 640 kbps/ AC3
Навигация по главам: есть


Код:

General
Unique ID                                : 220954388719905542945696656702984862584 (0xA63A447191FB4164AC9886D98FB2BB78)
Complete name                            : A:\1080p 60fps\Черепашки-ниндзя\3) Черепашки-ниндзя 3 Черепашки во времени 1080p 60fps.mkv
Format                                   : Matroska
Format version                           : Version 4 / Version 2
File size                                : 11.3 GiB
Duration                                 : 1h 36mn
Overall bit rate                         : 16.8 Mbps
Movie name                               : R.G. HD-Films by Tiberiumsun69 60fps
Encoded date                             : UTC 2015-01-05 14:35:57
Writing application                      : mkvmerge v7.4.0 ('Circles') 64bit built on Dec 12 2014 12:19:56
Writing library                          : libebml v1.3.0 + libmatroska v1.4.1
Attachment                               : Yes

Video
ID                                       : 1
Format                                   : AVC
Format/Info                              : Advanced Video Codec
Format profile                           : High@L4.1
Format settings, CABAC                   : Yes
Format settings, ReFrames                : 4 frames
Codec ID                                 : V_MPEG4/ISO/AVC
Duration                                 : 1h 36mn
Bit rate                                 : 15.0 Mbps
Width                                    : 1 920 pixels
Height                                   : 1 080 pixels
Display aspect ratio                     : 16:9
Frame rate                               : 59.940 fps
Color space                              : YUV
Chroma subsampling                       : 4:2:0
Bit depth                                : 8 bits
Scan type                                : Progressive
Bits/(Pixel*Frame)                       : 0.121
Stream size                              : 9.84 GiB (87%)
Title                                    : R.G. HD-Films by Tiberiumsun69 60fps
Writing library                          : x264 core 142 r2491 24e4fed
Encoding settings                        : cabac=1 / ref=4 / deblock=1:-1:-1 / analyse=0x3:0 / me=umh / subme=10 / psy=1 / psy_rd=1.00:0.00 / mixed_ref=1 / me_range=32 / chroma_me=0 / trellis=2 / 8x8dct=1 / cqm=0 / deadzone=21,11 / fast_pskip=1 / chroma_qp_offset=-2 / threads=12 / lookahead_threads=1 / sliced_threads=0 / nr=0 / decimate=1 / interlaced=0 / bluray_compat=0 / constrained_intra=0 / bframes=5 / b_pyramid=2 / b_adapt=2 / b_bias=0 / direct=3 / weightb=1 / open_gop=0 / weightp=2 / keyint=250 / keyint_min=59 / scenecut=40 / intra_refresh=0 / rc=2pass / mbtree=0 / bitrate=15000 / ratetol=1.0 / qcomp=0.80 / qpmin=0 / qpmax=69 / qpstep=4 / cplxblur=20.0 / qblur=0.5 / ip_ratio=1.40 / pb_ratio=1.30 / aq=1:1.00
Language                                 : English
Default                                  : Yes
Forced                                   : No

Audio #1
ID                                       : 2
Format                                   : AC-3
Format/Info                              : Audio Coding 3
Mode extension                           : CM (complete main)
Codec ID                                 : A_AC3
Duration                                 : 1h 36mn
Bit rate mode                            : Constant
Bit rate                                 : 640 Kbps
Channel(s)                               : 6 channels
Channel positions                        : Front: L C R, Side: L R, LFE
Sampling rate                            : 48.0 KHz
Bit depth                                : 16 bits
Compression mode                         : Lossy
Stream size                              : 440 MiB (4%)
Title                                    : Многоголосый, закадровый FOX
Language                                 : Russian
Default                                  : Yes
Forced                                   : No

Audio #2
ID                                       : 3
Format                                   : AC-3
Format/Info                              : Audio Coding 3
Mode extension                           : CM (complete main)
Codec ID                                 : A_AC3
Duration                                 : 1h 36mn
Bit rate mode                            : Constant
Bit rate                                 : 192 Kbps
Channel(s)                               : 2 channels
Channel positions                        : Front: L R
Sampling rate                            : 48.0 KHz
Bit depth                                : 16 bits
Compression mode                         : Lossy
Stream size                              : 132 MiB (1%)
Title                                    : Многоголосый, закадровый Рен ТВ
Language                                 : Russian
Default                                  : No
Forced                                   : No

Audio #3
ID                                       : 4
Format                                   : AC-3
Format/Info                              : Audio Coding 3
Mode extension                           : CM (complete main)
Codec ID                                 : A_AC3
Duration                                 : 1h 36mn
Bit rate mode                            : Constant
Bit rate                                 : 384 Kbps
Channel(s)                               : 6 channels
Channel positions                        : Front: L C R, Side: L R, LFE
Sampling rate                            : 48.0 KHz
Bit depth                                : 16 bits
Compression mode                         : Lossy
Stream size                              : 264 MiB (2%)
Title                                    : Двухголосый, закадровый Новый канал
Language                                 : Russian
Default                                  : No
Forced                                   : No

Audio #4
ID                                       : 5
Format                                   : AC-3
Format/Info                              : Audio Coding 3
Mode extension                           : CM (complete main)
Codec ID                                 : A_AC3
Duration                                 : 1h 36mn
Bit rate mode                            : Constant
Bit rate                                 : 640 Kbps
Channel(s)                               : 6 channels
Channel positions                        : Front: L C R, Side: L R, LFE
Sampling rate                            : 48.0 KHz
Bit depth                                : 16 bits
Compression mode                         : Lossy
Stream size                              : 440 MiB (4%)
Title                                    : Оригинал
Language                                 : English
Default                                  : No
Forced                                   : No

Text #1
ID                                       : 6
Format                                   : UTF-8
Codec ID                                 : S_TEXT/UTF8
Codec ID/Info                            : UTF-8 Plain Text
Title                                    : Полные
Language                                 : Russian
Default                                  : No
Forced                                   : No

Text #2
ID                                       : 7
Format                                   : UTF-8
Codec ID                                 : S_TEXT/UTF8
Codec ID/Info                            : UTF-8 Plain Text
Title                                    : Полные
Language                                 : English
Default                                  : No
Forced                                   : No

Menu
00:00:21.000                             : Chapter 1
00:07:10.367                             : Chapter 2
00:14:04.239                             : Chapter 3
00:17:40.829                             : Chapter 4
00:24:01.836                             : Chapter 5
00:29:26.285                             : Chapter 6
00:35:46.289                             : Chapter 7
00:40:41.793                             : Chapter 8
00:49:18.099                             : Chapter 9
00:50:42.101                             : Chapter 10
00:55:03.653                             : Chapter 11
00:58:20.893                             : Chapter 12
00:59:24.289                             : Chapter 13
01:02:08.577                             : Chapter 14
01:06:08.360                             : Chapter 15
01:10:59.234                             : Chapter 16
01:14:15.512                             : Chapter 17
01:17:02.012                             : Chapter 18
01:23:23.810                             : Chapter 19
01:30:53.135                             : Chapter 20

..::Скриншоты::..
/ TMNT«Raising Shell In 2007»



Год выпуска: 2007
Страна: Гонконг, США
Жанр: мультфильм, фантастика, фэнтези, боевик, комедия, приключения, семейный
Продолжительность: 01:27:15
Перевод: Дубляж
Субтитры:русские (Полные), английские (Полные)
Режиссер:Кевин Манро / Kevin Munroe
В ролях:

Крис Эванс (Casey, озвучка), Сара Мишель Геллар (April O'Neil, озвучка), Мако (Splinter, озвучка), Кевин Смит (Diner Cook, озвучка), Патрик Стюарт (Winters, озвучка), Чжан Цзыи (Karai, озвучка), Лоренс Фишбёрн (рассказчик, озвучка), Митчелл Уитфилд (Donatello / дополнительные голоса, озвучка), Джеймс Арнольд Тейлор (Leonardo, озвучка), Мики Келли (Michelangelo, озвучка), Нолан Норт (Raphael / Nightwatcher, озвучка), Джон Ди Маджио (Colonel Santino, озвучка)
Описание:
После поражения их старейшего врага Шредера, семья черепашек распалась. Кроме борьбы за единство семьи их сенсей Сплинтер обеспокоен еще и тем, что в Нью-Йорке происходит что-то странное. Техноиндустриалист Максимилиан Уинтерс готовит армию древних монстров, остановить которую сможет только суперкоманда бойцов ниндзя - Леонардо, Микеланджело, Донателло и Рафаэль! Вместе со своими прежними соратниками Эйприл О`Нил и Кейси Джонсом Черепашки снова в сражаются за свои жизни, им снова предстоит противостоять таинственному клану Фут, поставившему свои собственные способности ниндзя на службу интересам Уинтера.

Автор рипа:Tiberiumsun69
Качество: BDRip 1080p / 60 FPS
Формат: MKV
Видео кодек: AVC
Аудио кодек:AC3
Видео: 1920x792 (2.40:1), 11000 kbps, 59,940 fps
Аудио №1: русский/ 5.1/ 48 kHz/ 640 kbps/ AC3/ |Дубляж|
Аудио №2: английский/ 5.1/ 48 kHz/ 640 kbps/ AC3
Навигация по главам: есть


Код:

General
Unique ID                                : 251455760824965723969018217463798747603 (0xBD2C9E31B7FEC46580015F36CED2D1D3)
Complete name                            : A:\1080p 60fps\Черепашки-ниндзя\4) Черепашки-ниндзя (2007) 1080p 60fps.mkv
Format                                   : Matroska
Format version                           : Version 4 / Version 2
File size                                : 7.49 GiB
Duration                                 : 1h 27mn
Overall bit rate                         : 12.3 Mbps
Movie name                               : R.G. HD-Films by Tiberiumsun69 60fps
Encoded date                             : UTC 2015-01-05 17:23:07
Writing application                      : mkvmerge v7.4.0 ('Circles') 64bit built on Dec 12 2014 12:19:56
Writing library                          : libebml v1.3.0 + libmatroska v1.4.1
Attachment                               : Yes

Video
ID                                       : 1
Format                                   : AVC
Format/Info                              : Advanced Video Codec
Format profile                           : High@L4.1
Format settings, CABAC                   : Yes
Format settings, ReFrames                : 4 frames
Codec ID                                 : V_MPEG4/ISO/AVC
Duration                                 : 1h 27mn
Bit rate                                 : 11.0 Mbps
Width                                    : 1 920 pixels
Height                                   : 792 pixels
Display aspect ratio                     : 2.40:1
Frame rate                               : 59.940 fps
Color space                              : YUV
Chroma subsampling                       : 4:2:0
Bit depth                                : 8 bits
Scan type                                : Progressive
Bits/(Pixel*Frame)                       : 0.121
Stream size                              : 6.56 GiB (88%)
Title                                    : R.G. HD-Films by Tiberiumsun69 60fps
Writing library                          : x264 core 142 r2491 24e4fed
Encoding settings                        : cabac=1 / ref=4 / deblock=1:-1:-1 / analyse=0x3:0 / me=umh / subme=10 / psy=1 / psy_rd=1.00:0.00 / mixed_ref=1 / me_range=32 / chroma_me=0 / trellis=2 / 8x8dct=1 / cqm=0 / deadzone=21,11 / fast_pskip=1 / chroma_qp_offset=-2 / threads=12 / lookahead_threads=1 / sliced_threads=0 / nr=0 / decimate=1 / interlaced=0 / bluray_compat=0 / constrained_intra=0 / bframes=5 / b_pyramid=2 / b_adapt=2 / b_bias=0 / direct=3 / weightb=1 / open_gop=0 / weightp=2 / keyint=250 / keyint_min=59 / scenecut=40 / intra_refresh=0 / rc=2pass / mbtree=0 / bitrate=11000 / ratetol=1.0 / qcomp=0.80 / qpmin=0 / qpmax=69 / qpstep=4 / cplxblur=20.0 / qblur=0.5 / ip_ratio=1.40 / pb_ratio=1.30 / aq=1:1.00
Language                                 : English
Default                                  : Yes
Forced                                   : No

Audio #1
ID                                       : 2
Format                                   : AC-3
Format/Info                              : Audio Coding 3
Mode extension                           : CM (complete main)
Codec ID                                 : A_AC3
Duration                                 : 1h 27mn
Bit rate mode                            : Constant
Bit rate                                 : 640 Kbps
Channel(s)                               : 6 channels
Channel positions                        : Front: L C R, Side: L R, LFE
Sampling rate                            : 48.0 KHz
Bit depth                                : 16 bits
Compression mode                         : Lossy
Stream size                              : 399 MiB (5%)
Title                                    : Дубляж
Language                                 : Russian
Default                                  : Yes
Forced                                   : No

Audio #2
ID                                       : 3
Format                                   : AC-3
Format/Info                              : Audio Coding 3
Mode extension                           : CM (complete main)
Codec ID                                 : A_AC3
Duration                                 : 1h 27mn
Bit rate mode                            : Constant
Bit rate                                 : 640 Kbps
Channel(s)                               : 6 channels
Channel positions                        : Front: L C R, Side: L R, LFE
Sampling rate                            : 48.0 KHz
Bit depth                                : 16 bits
Compression mode                         : Lossy
Stream size                              : 399 MiB (5%)
Title                                    : Оригинал
Language                                 : English
Default                                  : No
Forced                                   : No

Text #1
ID                                       : 4
Format                                   : UTF-8
Codec ID                                 : S_TEXT/UTF8
Codec ID/Info                            : UTF-8 Plain Text
Title                                    : Полные
Language                                 : Russian
Default                                  : No
Forced                                   : No

Text #2
ID                                       : 5
Format                                   : UTF-8
Codec ID                                 : S_TEXT/UTF8
Codec ID/Info                            : UTF-8 Plain Text
Title                                    : Полные
Language                                 : English
Default                                  : No
Forced                                   : No

Menu
00:00:21.000                             : 13 Monsters / 13 гигантов
00:05:09.117                             : Ghost of the Jungle / Призрак джунглей
00:08:04.625                             : Brotherly Update / Четверо братьев
00:13:12.266                             : Glory Days Over / Былые времена позади
00:16:55.489                             : Expectant Mr. Winters / Мистер Уинтерс ждет
00:21:55.622                             : Asleep and Awake / Время просыпаться
00:26:06.706                             : Construction Destruction / Черепашки снова в деле
00:33:01.621                             : No Excuses / Без оправданий
00:37:04.864                             : Monster Roundup / Почти все в сборе
00:38:44.130                             : Witnesses / Свидетели
00:42:41.367                             : Written All Over It / Его имя повсюду
00:47:51.677                             : Little Fella / Малютка
00:52:11.770                             : Done Taking Orders / Мне надоели приказы
00:56:11.843                             : Battling Brothers / Поединок братьев
00:59:28.540                             : Hiding Over / Хватит прятаться
01:02:40.231                             : Our Time / Наше время
01:05:49.420                             : Choosing Sides / Выбор
01:10:46.217                             : Special Delivery / Особая доставка
01:14:58.802                             : Creepy Exit / Эффектный уход
01:18:22.339                             : What's Important / Самое главное
01:19:51.428                             : End Credits / Финальные титры

..::Скриншоты::..
Черепашки-ниндзя / Teenage Mutant Ninja Turtles«The leader. The brains. The attitude. And Mikey»



Год выпуска: 2014
Страна: США
Жанр: фантастика, фэнтези, боевик, комедия, приключения
Продолжительность: 01:41:39
Перевод: Дубляж
Субтитры:русские (Форсированные), русские (Полные), английские (Полные)
Режиссер:Джонатан Либесман / Jonathan Liebesman
В ролях:

Меган Фокс (April O'Neil), Уилл Арнетт (Vernon Fenwick), Уильям Фихтнер (Eric Sacks), Алан Ричсон (Raphael), Ноэль Фишер (Michelangelo), Пит Пложек (Leonardo), Джонни Ноксвил (Leonardo, озвучка), Джереми Ховард (Donatello), Дэнни Вудберн (Splinter), Тони Шэлуб (Splinter, озвучка), Тохору Масамуне (Shredder), Вупи Голдберг (Bernadette Thompson)
Описание:
Город нуждается в героях. Тьма окутала Нью-Йорк в виде Шреддера и его зловещего Клана Футов, у которого имеется железный контроль над всеми, от полицейских до политиков. Будущее выглядит мрачным, пока из канализации не поднимается и не раскрывает своё предназначение четвёрка отверженных братьев - Черепашки-ниндзя. Черепашки должны работать вместе с бесстрашным репортёром Эйприл и её саркастическим оператором Верном Фенвиком, чтобы спасти город и разгадать дьявольский план Шреддера.

Автор рипа:Tiberiumsun69
Качество: BDRip 1080p / 60 FPS
Формат: MKV
Видео кодек: AVC
Аудио кодек:AC3
Видео: 1920x800 (2.40:1), 11000 kbps, 59,940 fps
Аудио №1: русский/ 5.1/ 48 kHz/ 640 kbps/ AC3/ |Дубляж|
Аудио №2: английский/ 5.1/ 48 kHz/ 640 kbps/ AC3
Навигация по главам: есть


Код:

General
Unique ID                                : 185120790267518941096911263959189443258 (0x8B44F7A2F87AE1B28344F1EB7DBA52BA)
Complete name                            : A:\1080p 60fps\Черепашки-ниндзя\5) Черепашки-ниндзя (2014) 1080p 60fps.mkv
Format                                   : Matroska
Format version                           : Version 4 / Version 2
File size                                : 8.71 GiB
Duration                                 : 1h 41mn
Overall bit rate                         : 12.3 Mbps
Movie name                               : R.G. HD-Films by Tiberiumsun69 60fps
Encoded date                             : UTC 2015-01-05 17:55:27
Writing application                      : mkvmerge v7.4.0 ('Circles') 64bit built on Dec 12 2014 12:19:56
Writing library                          : libebml v1.3.0 + libmatroska v1.4.1
Attachment                               : Yes

Video
ID                                       : 1
Format                                   : AVC
Format/Info                              : Advanced Video Codec
Format profile                           : High@L4.1
Format settings, CABAC                   : Yes
Format settings, ReFrames                : 4 frames
Codec ID                                 : V_MPEG4/ISO/AVC
Duration                                 : 1h 41mn
Bit rate                                 : 11.0 Mbps
Width                                    : 1 920 pixels
Height                                   : 800 pixels
Display aspect ratio                     : 2.40:1
Frame rate                               : 59.940 fps
Color space                              : YUV
Chroma subsampling                       : 4:2:0
Bit depth                                : 8 bits
Scan type                                : Progressive
Bits/(Pixel*Frame)                       : 0.119
Stream size                              : 7.62 GiB (88%)
Title                                    : R.G. HD-Films by Tiberiumsun69 60fps
Writing library                          : x264 core 142 r2491 24e4fed
Encoding settings                        : cabac=1 / ref=4 / deblock=1:-1:-1 / analyse=0x3:0 / me=umh / subme=10 / psy=1 / psy_rd=1.00:0.00 / mixed_ref=1 / me_range=32 / chroma_me=0 / trellis=2 / 8x8dct=1 / cqm=0 / deadzone=21,11 / fast_pskip=1 / chroma_qp_offset=-2 / threads=12 / lookahead_threads=1 / sliced_threads=0 / nr=0 / decimate=1 / interlaced=0 / bluray_compat=0 / constrained_intra=0 / bframes=5 / b_pyramid=2 / b_adapt=2 / b_bias=0 / direct=3 / weightb=1 / open_gop=0 / weightp=2 / keyint=250 / keyint_min=59 / scenecut=40 / intra_refresh=0 / rc=2pass / mbtree=0 / bitrate=11000 / ratetol=1.0 / qcomp=0.80 / qpmin=0 / qpmax=69 / qpstep=4 / cplxblur=20.0 / qblur=0.5 / ip_ratio=1.40 / pb_ratio=1.30 / aq=1:1.00
Language                                 : English
Default                                  : Yes
Forced                                   : No

Audio #1
ID                                       : 2
Format                                   : AC-3
Format/Info                              : Audio Coding 3
Mode extension                           : CM (complete main)
Codec ID                                 : A_AC3
Duration                                 : 1h 41mn
Bit rate mode                            : Constant
Bit rate                                 : 640 Kbps
Channel(s)                               : 6 channels
Channel positions                        : Front: L C R, Side: L R, LFE
Sampling rate                            : 48.0 KHz
Bit depth                                : 16 bits
Compression mode                         : Lossy
Stream size                              : 465 MiB (5%)
Title                                    : Дубляж
Language                                 : Russian
Default                                  : Yes
Forced                                   : No

Audio #2
ID                                       : 3
Format                                   : AC-3
Format/Info                              : Audio Coding 3
Mode extension                           : CM (complete main)
Codec ID                                 : A_AC3
Duration                                 : 1h 41mn
Bit rate mode                            : Constant
Bit rate                                 : 640 Kbps
Channel(s)                               : 6 channels
Channel positions                        : Front: L C R, Side: L R, LFE
Sampling rate                            : 48.0 KHz
Bit depth                                : 16 bits
Compression mode                         : Lossy
Stream size                              : 465 MiB (5%)
Title                                    : Оригинал
Language                                 : English
Default                                  : No
Forced                                   : No

Text #1
ID                                       : 4
Format                                   : UTF-8
Codec ID                                 : S_TEXT/UTF8
Codec ID/Info                            : UTF-8 Plain Text
Title                                    : Форсированные
Language                                 : Russian
Default                                  : Yes
Forced                                   : No

Text #2
ID                                       : 5
Format                                   : UTF-8
Codec ID                                 : S_TEXT/UTF8
Codec ID/Info                            : UTF-8 Plain Text
Title                                    : Полные
Language                                 : Russian
Default                                  : No
Forced                                   : No

Text #3
ID                                       : 6
Format                                   : UTF-8
Codec ID                                 : S_TEXT/UTF8
Codec ID/Info                            : UTF-8 Plain Text
Title                                    : Полные
Language                                 : English
Default                                  : No
Forced                                   : No

Menu
00:00:21.000                             : Chapter 01
00:03:03.287                             : Chapter 02
00:06:21.485                             : Chapter 03
00:12:12.544                             : Chapter 04
00:16:22.835                             : Chapter 05
00:22:23.946                             : Chapter 06
00:28:43.784                             : Chapter 07
00:34:22.831                             : Chapter 08
00:38:25.031                             : Chapter 09
00:42:31.110                             : Chapter 10
00:48:57.413                             : Chapter 11
00:56:07.092                             : Chapter 12
01:01:05.265                             : Chapter 13
01:08:07.604                             : Chapter 14
01:15:51.359                             : Chapter 15
01:24:31.795                             : Chapter 16
01:30:38.036                             : Chapter 17
01:34:24.564                             : Chapter 18

..::Скриншоты::..

Просьба к заливающим на другик сайты "Подписывайте пожалуйста автора рипа Tiberiumsun69"

© Оформление by Tiberiumsun69 Демонстрация 5-120 fps!!! Жмите
Авторская группа в ВК
pb.wtf



Скачать Черепашки-ниндзя: Антология через торрент http://i63.fastpic.ru/big/2015/0105/0d/9b9b30727595e16e50fdf54467f8c80d.png Скачать, смотреть онлайн Черепашки-ниндзя: Антология бесплантно в хорошем качестве Описание: Четыре черепашки и крыса в канализационных трубах Нью-Йорка вляпались в радиационные отходы, мутировали и превратились в ... 9.5 10 46
Info! Золотая раздача, скачанное не засчитывается.
Торрент: Зарегистрирован [2015-01-05 18:54] · скачан: 162 раз
Статус: √ проверено
Размер: 47.85 GB
Как cкачать? Как скачать Черепашки-ниндзя: Антология через торрент | UTorrent



Последний раз редактировалось: Tiberiumsun69 (2018-02-09 08:03), всего редактировалось 1 раз

28-11-2019 20:33  

Отключить всю рекламу на сайте

05-01-2015 18:56 Черепашки-ниндзя: Антология Скачать торрент  

P.S Версия 2007 года , мультфильм.Но он является продолжением 3 части.Всем приятного просмотра. :hmmm pb.wtf



05-01-2015 20:22 Черепашки-ниндзя: Антология Скачать торрент  

Мультфильм 2007 года - это шедевр. Запомнился. Долго его ждали, и мульт не подвёл: там интересная история и нарисовано здорово, это видно даже по скринам.pb.wtf



20-01-2015 20:03 Черепашки-ниндзя: Антология Скачать торрент  

Спасибоpb.wtf



20-12-2017 10:35 Черепашки-ниндзя: Антология Скачать торрент  

станьте на раздачу плиззззз!!!!pb.wtf



30-03-2018 17:20 Черепашки-ниндзя: Антология Скачать торрент  

Встаньте пожалуйста на раздачу!pb.wtf



28-07-2018 15:56 Черепашки-ниндзя: Антология Скачать торрент  

Ребята встаньте на раздачу, помогите пожалуйста скачать, а то уже неделю качаю!pb.wtf



    Дорогой пользователь! Огромная просьба, поблагодарите релизера, оцените раздачу и оставьте свои комментарий, если Вы скачали Черепашки-ниндзя: Антология через торрент бесплатно!
    Комментировать посты могут только пользователи прошедшие не сложную регистрацию
    Показать сообщения:    

    Черепашки-ниндзя: Антология через торрент
    Скачать бесплатно Черепашки-ниндзя: Антология
    Черепашки-ниндзя: Антология скачать торрент
    Черепашки-ниндзя: Антология смотреть онлайн
    Cкачать фильм Черепашки-ниндзя: Антология бесплатно
    Черепашки-ниндзя: Антология скачать торрент в хорошем качестве
    Черепашки-ниндзя: Антология смотреть онлайн бесплатно в хорошем качестве


    Вы не можете начинать темы
    Вы не можете отвечать на сообщения
    Вы не можете редактировать свои сообщения
    Вы не можете удалять свои сообщения
    Вы не можете голосовать в опросах
    Вы не можете прикреплять файлы к сообщениям
    Вы можете скачивать файлы