Ссылка на приватное зеркало нашего сайта всего за 1$. Внимание количество ограничено!!!

2 сезон

iTunes

1 сезон

1

iTunes

iTunes

iTunes

1 сезон

RePack

30

ИГРА 18+

pack

ВАЖНО

!!Акция!!

Alien_RageХит недели

RePack

MK11
pack

Забери бонус

RePack

jed

!!Акция!!

Alien_Rage

RePack

fifa19

RePack

Assassins Creed: Odyssey

RePack

NEED FOR SPEED™ PAYBACK

4 сезон

9 сезон

Бесстыжие 9 сезон

Все сериалы

все сериалы на PB.wtf

RePack

FAR CRY 5
  

Цезарь должен умереть / Cesare deve morire (Паоло Тавиани / Paolo Taviani, Витторио Тавиани / Vittorio Taviani) [2012, Италия, драма, HDTVRip 720p] MVO [1 канал] от R.G. PiratFilms pb.wtf

Цезарь должен умереть через торрент pb.wtf

Размер: 1.67 GB | Добавлен: 5 лет 9 мес. назад | Торрент скачан:51 раз
Скачать  

05-01-2015 20:44 Цезарь должен умереть Скачать торрент  

Цезарь должен умереть / Cesare deve morire
«Его смерть откроет им глаза на их жизнь»
Год выпуска: 2012
Страна: Италия
Жанр: драма
Продолжительность: 01:10:35
Перевод:
|Профессиональный (многоголосый, закадровый) Первый Канал|
Субтитры: на некоторые фразы присутствуют вшитые неотключаемые итальянские субтитры.

Режиссер: Паоло Тавиани / Paolo Taviani, Витторио Тавиани / Vittorio Taviani
В ролях: Козимо Рега (Cassio), Сальваторе Стриано (Bruto), Джованни Аркури (Cesare), Антонио Фраска (Marcantonio), Хуан Дарио Бонетти (Decio), Винченцо Галло (Lucio), Розарио Майорана (Metello), Франческо Де Маси (Trebonio), Дженнаро Солито (Cinna), Витторио Паррелла (Casca), Паскуале Крапетти (Legionary), Франческо Карусоне (Fortune Teller)
Описание:
Заканчивается пьеса Шекспира «Юлий Цезарь», занавес, бурные овации. Гаснет свет, актеры покидают сцену и... возвращаются в камеры римской тюрьмы строгого режима «Ребибия». Камера запечатлела грандиозный эксперимент по постановке спектакля режиссером Фабио Кавалли с заключенными, многие из которых отбывают пожизненный срок. Универсальный язык Шекспира помогает новоявленным актерам понять свои роли, вновь познать дружбу и предательство, Влacть, обман и насилие - сначала в пьесе, а потом и в своей жизни. И хотя подмостки этой пьесы - тюрьма, в самом фильме она удивительным образом исчезает...

Рейтинг
Берлинский кинофестиваль, 2012 год ... Победитель:
Золотой Медведь
Приз экуменического (христианского) жюри (конкурсная программа)

Качество: HDTVRip 720p
Формат: MKV
Видео кодек: AVC
Аудио кодек: MP2
Видео: AVC, 1280x692 (1.850), 3197 kbps, 25 fps, 0,144 bpp
Аудио: русский / MP2 / 2.0 / 48 kHz / 192 kbps
Оформление: Messa-fan
Рип: by Messa-fan

Код:

x264 [info]: frame I:597   Avg QP:14.31  size:113213
x264 [info]: frame P:28582 Avg QP:16.63  size: 35853
x264 [info]: frame B:76720 Avg QP:19.79  size:  7824
x264 [info]: consecutive B-frames:  2.5%  4.3%  7.6% 71.5%  6.3%  6.7%  0.6%  0.3%  0.2%

Код:

General
Unique ID                                : 177691647864821971051436472913648913859 (0x85AE2AA2F52C5484966831D542EB8DC3)
Complete name                            : Cesare.deve.morire.2012.HDTV.720p.Rus.mkv
Format                                   : Matroska
Format version                           : Version 4 / Version 2
File size                                : 1.67 GiB
Duration                                 : 1h 10mn
Overall bit rate                         : 3 391 Kbps
Movie name                               : Cesare deve morire (2012) HDTVRip 720p encode by messafan
Encoded date                             : UTC 2015-01-05 18:31:07
Writing application                      : mkvmerge v6.7.0 ('Back to the Ground') 64bit built on Jan  8 2014 15:10:52
Writing library                          : libebml v1.3.0 + libmatroska v1.4.1

Video
ID                                       : 1
Format                                   : AVC
Format/Info                              : Advanced Video Codec
Format profile                           : High@L4.1
Format settings, CABAC                   : Yes
Format settings, ReFrames                : 8 frames
Codec ID                                 : V_MPEG4/ISO/AVC
Duration                                 : 1h 10mn
Bit rate                                 : 3 197 Kbps
Width                                    : 1 280 pixels
Height                                   : 692 pixels
Display aspect ratio                     : 1.850
Frame rate                               : 25.000 fps
Color space                              : YUV
Chroma subsampling                       : 4:2:0
Bit depth                                : 8 bits
Scan type                                : Progressive
Bits/(Pixel*Frame)                       : 0.144
Stream size                              : 1.54 GiB (92%)
Title                                    : Cesare deve morire (2012) HDTVRip 720p encode by messafan
Writing library                          : x264 core 142 r2479kMod dd79a61
Encoding settings                        : cabac=1 / ref=8 / deblock=1:-3:-3 / analyse=0x3:0x113 / me=umh / subme=10 / psy=1 / fade_compensate=0.00 / psy_rd=0.95:0.05 / mixed_ref=1 / me_range=32 / chroma_me=1 / trellis=2 / 8x8dct=1 / cqm=0 / deadzone=21,11 / fast_pskip=0 / chroma_qp_offset=-5 / threads=6 / lookahead_threads=1 / sliced_threads=0 / nr=0 / decimate=1 / interlaced=0 / bluray_compat=0 / constrained_intra=0 / fgo=0 / bframes=8 / b_pyramid=2 / b_adapt=2 / b_bias=0 / direct=3 / weightb=1 / open_gop=0 / weightp=1 / keyint=250 / keyint_min=25 / scenecut=40 / intra_refresh=0 / rc_lookahead=60 / rc=2pass / mbtree=1 / bitrate=3197 / ratetol=1.0 / qcomp=0.70 / qpmin=0 / qpmax=69 / qpstep=4 / cplxblur=20.0 / qblur=0.5 / vbv_maxrate=50000 / vbv_bufsize=62500 / nal_hrd=none / filler=0 / ip_ratio=1.30 / aq=1:0.70
Language                                 : English
Default                                  : Yes
Forced                                   : No

Audio
ID                                       : 2
Format                                   : MPEG Audio
Format version                           : Version 1
Format profile                           : Layer 2
Codec ID                                 : A_MPEG/L2
Codec ID/Hint                            : MP2
Duration                                 : 1h 10mn
Bit rate mode                            : Constant
Bit rate                                 : 192 Kbps
Channel(s)                               : 2 channels
Sampling rate                            : 48.0 KHz
Compression mode                         : Lossy
Stream size                              : 97.0 MiB (6%)
Title                                    : MVO
Language                                 : Russian
Default                                  : Yes
Forced                                   : No



  • Актеры в фильме являются настоящими заключенными итальянской тюрьмы, где братья Тавиани проводили кастинг.

  • pb.wtf



    Скачать Цезарь должен умереть через торрент http://i63.fastpic.ru/big/2015/0106/2e/c652c701589b23a694ffe460d408482e.png Скачать фильм Цезарь должен умереть через торрент бесплантно в хорошем качестве Описание: Заканчивается пьеса Шекспира «Юлий Цезарь», занавес, бурные овации. Гаснет свет, актеры покидают сцену и... возвращаются в камеры ... 10 10 2
    Info! Золотая раздача, скачанное не засчитывается.
    Торрент: Зарегистрирован [2015-01-06 13:29] · скачан: 51 раз
    Статус: √ проверено
    Размер: 1.67 GB
    Как cкачать? Как скачать Цезарь должен умереть через торрент | qTorrent



    Последний раз редактировалось: Messa-fan (2015-01-06 13:40), всего редактировалось 2 раз(а)

    28-11-2019 20:33  

    Отключить всю рекламу на сайте

      Дорогой пользователь! Огромная просьба, поблагодарите релизера, оцените раздачу и оставьте свои комментарий, если Вы скачали Цезарь должен умереть через торрент бесплатно! Внесите свою лепту в развитие PiratBit!
      Комментировать посты могут только пользователи прошедшие не сложную регистрацию
      Показать сообщения:    

      Цезарь должен умереть через торрент
      Скачать бесплатно Цезарь должен умереть
      Цезарь должен умереть скачать торрент
      Цезарь должен умереть смотреть онлайн
      Cкачать фильм Цезарь должен умереть бесплатно
      Цезарь должен умереть скачать торрент в хорошем качестве
      Цезарь должен умереть смотреть онлайн бесплатно в хорошем качестве


      Вы не можете начинать темы
      Вы не можете отвечать на сообщения
      Вы не можете редактировать свои сообщения
      Вы не можете удалять свои сообщения
      Вы не можете голосовать в опросах
      Вы не можете прикреплять файлы к сообщениям
      Вы можете скачивать файлы