Ссылка на приватное зеркало нашего сайта всего за 1$. Внимание количество ограничено!!!

2 сезон

iTunes

1 сезон

1

iTunes

iTunes

iTunes

1 сезон

RePack

30

ИГРА 18+

pack

ВАЖНО

!!Акция!!

Alien_RageХит недели

RePack

MK11
pack

Забери бонус

RePack

jed

!!Акция!!

Alien_Rage

RePack

fifa19

RePack

Assassins Creed: Odyssey

RePack

NEED FOR SPEED™ PAYBACK

4 сезон

9 сезон

Бесстыжие 9 сезон

Все сериалы

все сериалы на PB.wtf

RePack

FAR CRY 5
  

Чем мы занимаемся в тени / Реальные упыри / What We Do in the Shadows (Джемейн Клемент / Jemaine Clement, Таика Вайтити / Taika Cohen) [2014, Новая Зеландия, ужасы, комедия, BDRip 720p, Профессиональный (двухголосый) [Ozz] pb.wtf

Чем мы занимаемся в тени через торрент pb.wtf

Размер: 4.48 GB | Добавлен: 5 лет 9 мес. назад | Торрент скачан:589 раз
Скачать  

06-01-2015 04:13 Чем мы занимаемся в тени Скачать торрент  

Чем мы занимаемся в тени / Реальные упыри / What We Do in the Shadows


  • Год выпуска: 2014
  • Страна: Новая Зеландия
  • Жанр: ужасы, комедия
  • Продолжительность: 01:25:23
  • Перевод: Профессиональный (двухголосый) [Ozz]

  • Режиссер: Джемейн Клемент / Jemaine Clement, Таика Вайтити / Taika Cohen
  • В ролях:

    Джемейн Клемент (Vladislav), Таика Вайтити (Viago), Джонатан Бруг (Deacon), Кори Гонсалес-Макуэр (Nick), Стюарт Рутерфорд (Stu), Бен Френшам (Petyr), Джеки ван Бик (Jackie), Елена Стейко (Pauline Ivanovich, The Beast), Джейсон Хойте (Julian), Карен О’Лири (Officer O'Leary), Майк Миноуг (Officer Minogue), Челси Престон-Крейфорд (Josephine)

  • Описание:
    История жизни Виаго, Дикона и Владислава - трёх соседей и по совместительству бессмертных вампиров, которые всего лишь пытаются выжить в современном мире, где есть арендная плата, фейсконтроль в ночных клубах, губительный солнечный свет и другие неприятности.
  • Рейтинг:



  • Качество: BDRip 720p
  • Формат: :MKV
  • Видео кодек: AVC
  • Аудио кодек: AC3, DTS
  • Видео: 1280x688 (1.860), 5814 kbps, 24 fps, 0,275 bpp
  • Аудио №1: русский / 2.0 / 48 kHz / 192 kbps / 16 bit |Ozz|
  • Аудио №2: английский / 5.1 / 48 kHz / 1510 kbps / 24 bit
  • Релиз от: GEKADOL

    Код:

    General
    Unique ID                                : 191349520441714298682388148659838430983 (0x8FF493BE8C515304BA4A832A165EAF07)
    Complete name                            : I:\Realn1e.Up1r1.2014.P.BDRip.720p.mkv
    Format                                   : Matroska
    Format version                           : Version 2
    File size                                : 4.48 GiB
    Duration                                 : 1h 25mn
    Overall bit rate                         : 7 516 Kbps
    Encoded date                             : UTC 2015-01-05 17:46:29
    Writing application                      : mkvmerge v7.5.0 ('Glass Culture') 64bit built on Jan  4 2015 16:48:44
    Writing library                          : libebml v1.3.1 + libmatroska v1.4.2
    DURATION                                 : 01:25:23.456000000
    NUMBER_OF_FRAMES                         : 160108
    NUMBER_OF_BYTES                          : 122962944
    _STATISTICS_WRITING_APP                  : mkvmerge v7.5.0 ('Glass Culture') 64bit built on Jan  4 2015 16:48:44
    _STATISTICS_WRITING_DATE_UTC             : 2015-01-05 17:46:29
    _STATISTICS_TAGS                         : BPS DURATION NUMBER_OF_FRAMES NUMBER_OF_BYTES

    Video
    ID                                       : 1
    Format                                   : AVC
    Format/Info                              : Advanced Video Codec
    Format profile                           : High@L4.1
    Format settings, CABAC                   : Yes
    Format settings, ReFrames                : 5 frames
    Codec ID                                 : V_MPEG4/ISO/AVC
    Duration                                 : 1h 25mn
    Bit rate                                 : 5 814 Kbps
    Width                                    : 1 280 pixels
    Height                                   : 688 pixels
    Display aspect ratio                     : 1.860
    Frame rate                               : 24.000 fps
    Color space                              : YUV
    Chroma subsampling                       : 4:2:0
    Bit depth                                : 8 bits
    Scan type                                : Progressive
    Bits/(Pixel*Frame)                       : 0.275
    Stream size                              : 3.38 GiB (75%)
    Writing library                          : x264 core 144 r2525 40bb568
    Encoding settings                        : cabac=1 / ref=5 / deblock=1:-3:-3 / analyse=0x3:0x113 / me=umh / subme=8 / psy=1 / psy_rd=1.00:0.00 / mixed_ref=1 / me_range=16 / chroma_me=1 / trellis=1 / 8x8dct=1 / cqm=0 / deadzone=21,11 / fast_pskip=1 / chroma_qp_offset=-2 / threads=12 / lookahead_threads=2 / sliced_threads=0 / nr=0 / decimate=1 / interlaced=0 / bluray_compat=0 / constrained_intra=0 / bframes=3 / b_pyramid=2 / b_adapt=2 / b_bias=0 / direct=3 / weightb=1 / open_gop=0 / weightp=2 / keyint=240 / keyint_min=24 / scenecut=40 / intra_refresh=0 / rc_lookahead=50 / rc=2pass / mbtree=1 / bitrate=5814 / ratetol=1.0 / qcomp=0.60 / qpmin=0 / qpmax=69 / qpstep=4 / cplxblur=20.0 / qblur=0.5 / ip_ratio=1.40 / aq=1:1.00
    Language                                 : English
    Default                                  : Yes
    Forced                                   : No
    DURATION                                 : 01:25:23.958000000
    NUMBER_OF_FRAMES                         : 122975
    NUMBER_OF_BYTES                          : 3723028106
    _STATISTICS_WRITING_APP                  : mkvmerge v7.5.0 ('Glass Culture') 64bit built on Jan  4 2015 16:48:44
    _STATISTICS_WRITING_DATE_UTC             : 2015-01-05 17:46:29
    _STATISTICS_TAGS                         : BPS DURATION NUMBER_OF_FRAMES NUMBER_OF_BYTES

    Audio #1
    ID                                       : 2
    Format                                   : AC-3
    Format/Info                              : Audio Coding 3
    Mode extension                           : CM (complete main)
    Codec ID                                 : A_AC3
    Duration                                 : 1h 25mn
    Bit rate mode                            : Constant
    Bit rate                                 : 192 Kbps
    Channel(s)                               : 2 channels
    Channel positions                        : Front: L R
    Sampling rate                            : 48.0 KHz
    Bit depth                                : 16 bits
    Compression mode                         : Lossy
    Stream size                              : 117 MiB (3%)
    Language                                 : Russian
    Default                                  : Yes
    Forced                                   : No

    Audio #2
    ID                                       : 3
    Format                                   : DTS
    Format/Info                              : Digital Theater Systems
    Codec ID                                 : A_DTS
    Duration                                 : 1h 25mn
    Bit rate mode                            : Constant
    Bit rate                                 : 1 510 Kbps
    Channel(s)                               : 6 channels
    Channel positions                        : Front: L C R, Side: L R, LFE
    Sampling rate                            : 48.0 KHz
    Bit depth                                : 24 bits
    Compression mode                         : Lossy
    Stream size                              : 922 MiB (20%)
    Language                                 : English
    Default                                  : No
    Forced                                   : No

    Menu
    00:00:00.000                             : en:00:00:00.000
    00:09:20.083                             : en:00:09:20.083
    00:15:43.750                             : en:00:15:43.750
    00:22:30.042                             : en:00:22:30.042
    00:28:03.042                             : en:00:28:03.042
    00:35:17.875                             : en:00:35:17.875
    00:42:31.542                             : en:00:42:31.542
    00:48:28.333                             : en:00:48:28.333
    00:57:18.625                             : en:00:57:18.625
    01:01:14.333                             : en:01:01:14.333
    01:14:00.500                             : en:01:14:00.500
    01:22:01.750                             : en:01:22:01.750


    Скриншоты:



    pb.wtf



  • Скачать Чем мы занимаемся в тени через торрент http://i65.fastpic.ru/big/2015/0106/cc/0759e3735655c0e3b68a1f2a76b158cc.jpg Скачать фильм Чем мы занимаемся в тени через торрент бесплантно в хорошем качестве Описание: История жизни Виаго, Дикона и Владислава - трёх соседей и по совместительству бессмертных вампиров, которые всего лишь пытаются ... 9.5 10 13
    Торрент: Зарегистрирован [2015-01-06 04:13] · скачан: 589 раз
    Статус: √ проверено
    Размер: 4.48 GB
    Как cкачать? Как скачать Чем мы занимаемся в тени через торрент | qTorrent

    % Раздел Тема Автор DL S | L
    Фильмы 2014 [DVDrip, WEB-DLRip, HDrip] [ 680 MB ] Чем мы занимаемся в тени / Реальные упыри / What We Do in the Shadows [2014 HDRip-AVC] [DVO] killermax2013 Скачать
    1 | 0

    28-11-2019 20:33  

    Отключить всю рекламу на сайте

      Дорогой пользователь! Огромная просьба, поблагодарите релизера, оцените раздачу и оставьте свои комментарий, если Вы скачали Чем мы занимаемся в тени через торрент бесплатно! Внесите свою лепту в развитие PiratBit!
      Комментировать посты могут только пользователи прошедшие не сложную регистрацию
      Показать сообщения:    

      Чем мы занимаемся в тени через торрент
      Скачать бесплатно Чем мы занимаемся в тени
      Чем мы занимаемся в тени скачать торрент
      Чем мы занимаемся в тени смотреть онлайн
      Cкачать фильм Чем мы занимаемся в тени бесплатно
      Чем мы занимаемся в тени скачать торрент в хорошем качестве
      Чем мы занимаемся в тени смотреть онлайн бесплатно в хорошем качестве


      Вы не можете начинать темы
      Вы не можете отвечать на сообщения
      Вы не можете редактировать свои сообщения
      Вы не можете удалять свои сообщения
      Вы не можете голосовать в опросах
      Вы не можете прикреплять файлы к сообщениям
      Вы можете скачивать файлы