Присоединяйтесь к нам в Telegram!, здесь всегда актуальный адрес сайта, оперативная поддержка и многое другое!!

>

5.9

iTunes

7.4

iTunes

9.4

1 сезон

1

7.4

2 сезон

7.2

iTunes

7.3

1 сезон

13

6.1

iTunes

8.3

GOG

30

ULTIMATE

pack

9.9

Лицензия

ВАЖНО

ИГРА 18+

pack

7.3

RePack

MK11

7.7

RePack

jed

7.8

RePack

fifa19

8.5

RePack

RDR2

RePack

NEED FOR SPEED™ PAYBACK

5 сезон

9 сезон

Бесстыжие 9 сезон

Все сериалы

все сериалы на PB.wtf

RePack

FAR CRY 5

Anonymous, доброе утро, мы катастрофически не успеваем собрать деньги на оплату серверов, помогите нам пожалуйста 5,10,15р., для нас важна любая помощь . В качестве благодарности мы отключим Вам всю рекламу на сайте (укажите свой ник в строку Ваше имя)!

×
  
Magnet ссылка

СтрипЛв / Striplv [2014 г., Show, Striptise, Danse, WEB-DLRip 720p, Оригинал] pb.wtf

СтрипЛв через торрент pb.wtf

Размер: 2.29 GB | Добавлен: 6 лет 10 мес. назад | Торрент скачан:461 раз
Смотреть онлайн СтрипЛв | Скачать    Ребята, помогите собрать деньги на оплату серверов!!!

06-01-2015 17:08 СтрипЛв Скачать торрент  


СтрипЛв / Striplv

Год выпуска: 2014
Страна: Las Vegas, Nevada
Жанр: Show, Striptise, Danse
Продолжительность: 01:38:51
Перевод: Оригинал

Описание:

Красивые и азартные девушки показывают всё что умеют!
STRIPLV - The Sexiest Magazine on the Planet!
01. Maddy - Oreilly Maddy
02. Abigail Mac - Nude
03. Remy Lacroix - Pink lust
04. Olga Loera - Mami
05. Cassie Laine - Pigtails
06. Sophia Jade - Kiss and Tell
07. Ashlyn Molloy - Purple Kush
08. Eufrat - Czech Mate
09. Capria - Lust
10. Kortney Kane - Wet
11. Nicole Aniston - Beauty
12. Chanel Preston - Classic
13. Veronica Ricci - Wonderland
14. Idelsy - Love natural
15. Raven Rockette - Natural Muse
16. Chloe Amour - Sweet Syrup
17. Danielle Trixie - Inside Danielle
18. Jayden Colet - Emptress
19. Marie Mccray - Ginger Au Naturale
20. Claire Sinclair - Pin up
21. Elle Alexandra - Has a Secret feeling edit
22. Jesse Janenerd
23. Kendall Karson - 30 minutes with
24. Rilynn Rae - Of light
25. Sovereign Syre - Slave
Качество: WEB-DLRip 720p
Формат: MP4
Видео кодек: MPEG4
Аудио кодек: AAC
Видео: AVC, 1280х720, 1920x1080 (16:9), 29.970 fps, 4 898 Kbps (0.079 bit/pixel)
Аудио#1: AAC LC, 44.1 KHz, 2 ch, 128 -192 Kbps, CBR (English)
скриншот   скриншот   скриншот   скриншот   скриншот   скриншот  
скриншот   скриншот   скриншот   скриншот   скриншот   скриншот  

Общее
Полное имя : D:\Архив\Клипы\Striplv\01. Maddy - Oreilly Maddy.mp4
Формат : MPEG-4
Профиль формата : Base Media / Version 2
Идентификатор кодека : mp42
Размер файла : 127 Мбайт
Продолжительность : 3 м. 31 с.
Общий поток : 5022 Кбит/сек
Дата кодирования : UTC 2014-04-05 22:15:26
Дата пометки : UTC 2014-04-05 22:51:02

Видео
Идентификатор : 1
Формат : AVC
Формат/Информация : Advanced Video Codec
Профиль формата : Main@L4.0
Параметр CABAC формата : Нет
Параметр ReFrames формата : 2 кадра
Параметр GOP формата : M=2, N=24
Идентификатор кодека : avc1
Идентификатор кодека/Информация : Advanced Video Coding
Продолжительность : 3 м. 31 с.
Продолжительность оригинала : 3 м. 31 с.
Битрейт : 4899 Кбит/сек
Ширина : 1920 пикселей
Высота : 1080 пикселей
Соотношение сторон : 16:9
Режим частоты кадров : Постоянный
Частота кадров : 29,970 кадров/сек
Цветовое пространство : YUV
Субдискретизация насыщенности : 4:2:0
Битовая глубина : 8 бит
Тип развёртки : Прогрессивная
Бит/(Пиксели*Кадры) : 0.079
Размер потока : 123 Мбайт (98%)
Размер потока оригинала : 123 Мбайт (98%)
Язык : English
Дата кодирования : UTC 2014-04-05 22:46:17
Дата пометки : UTC 2014-04-05 22:51:02
Основные цвета : BT.709
Характеристики трансфера : BT.709
Коэффициенты матрицы : BT.709

Аудио
Идентификатор : 2
Формат : AAC
Формат/Информация : Advanced Audio Codec
Профиль формата : LC
Идентификатор кодека : 40
Продолжительность : 3 м. 20 с.
Вид битрейта : Постоянный
Битрейт : 128 Кбит/сек
Каналы : 2 канала
Расположение каналов : Front: L R
Частота : 44,1 КГц
Метод сжатия : С потерями
Размер потока : 2,98 Мбайт (2%)
Язык : English
Дата кодирования : UTC 2014-04-05 22:46:18
Дата пометки : UTC 2014-04-05 22:51:02

Общее
Полное имя : D:\Архив\Клипы\Striplv\02. Abigail Mac - Nude.mp4
Формат : MPEG-4
Профиль формата : Base Media / Version 2
Идентификатор кодека : mp42
Размер файла : 67,0 Мбайт
Продолжительность : 4 м. 1 с.
Режим общего битрейта : Переменный
Общий поток : 2322 Кбит/сек
Дата кодирования : UTC 2015-01-06 01:43:50
Дата пометки : UTC 2015-01-06 01:43:50

Видео
Идентификатор : 1
Формат : AVC
Формат/Информация : Advanced Video Codec
Профиль формата : High@L3.1
Параметр CABAC формата : Да
Параметр ReFrames формата : 4 кадра
Идентификатор кодека : avc1
Идентификатор кодека/Информация : Advanced Video Coding
Продолжительность : 4 м. 1 с.
Битрейт : 2170 Кбит/сек
Ширина : 1280 пикселей
Высота : 720 пикселей
Соотношение сторон : 16:9
Режим частоты кадров : Постоянный
Частота кадров : 29,970 кадров/сек
Цветовое пространство : YUV
Субдискретизация насыщенности : 4:2:0
Битовая глубина : 8 бит
Тип развёртки : Прогрессивная
Бит/(Пиксели*Кадры) : 0.079
Размер потока : 62,6 Мбайт (93%)
Библиотека кодирования : x264 core 142 r11 24e4fed
Настройки программы : cabac=1 / ref=3 / deblock=1:0:0 / analyse=0x3:0x113 / me=hex / subme=7 / psy=1 / psy_rd=1.00:0.00 / mixed_ref=1 / me_range=16 / chroma_me=1 / trellis=1 / 8x8dct=1 / cqm=0 / deadzone=21,11 / fast_pskip=1 / chroma_qp_offset=-2 / threads=48 / lookahead_threads=5 / sliced_threads=0 / nr=0 / decimate=1 / interlaced=0 / bluray_compat=0 / stitchable=1 / constrained_intra=0 / bframes=3 / b_pyramid=2 / b_adapt=1 / b_bias=0 / direct=1 / weightb=1 / open_gop=0 / weightp=2 / keyint=infinite / keyint_min=29 / scenecut=40 / intra_refresh=0 / rc_lookahead=40 / rc=crf / mbtree=1 / crf=20.0 / qcomp=0.60 / qpmin=5 / qpmax=69 / qpstep=4 / vbv_maxrate=2750 / vbv_bufsize=7500 / crf_max=0.0 / nal_hrd=none / filler=0 / ip_ratio=1.40 / aq=1:1.00
Дата кодирования : UTC 2015-01-06 01:43:50
Дата пометки : UTC 2015-01-06 01:43:50
Основные цвета : BT.709
Характеристики трансфера : BT.709
Коэффициенты матрицы : BT.709

Аудио
Идентификатор : 2
Формат : AAC
Формат/Информация : Advanced Audio Codec
Профиль формата : LC
Идентификатор кодека : 40
Продолжительность : 4 м. 1 с.
Вид битрейта : Переменный
Битрейт : 147 Кбит/сек
Каналы : 2 канала
Расположение каналов : Front: L R
Частота : 48,0 КГц
Метод сжатия : С потерями
Размер потока : 4,24 Мбайт (6%)
Дата кодирования : UTC 2015-01-06 01:43:50
Дата пометки : UTC 2015-01-06 01:43:50

Общее
Полное имя : D:\Архив\Клипы\Striplv\03. Remy Lacroix - Pink lust.mp4
Формат : MPEG-4
Профиль формата : Base Media / Version 2
Идентификатор кодека : mp42
Размер файла : 62,6 Мбайт
Продолжительность : 3 м. 26 с.
Общий поток : 2540 Кбит/сек
Дата кодирования : UTC 2014-09-06 20:05:15
Дата пометки : UTC 2014-09-06 20:48:37

Видео
Идентификатор : 1
Формат : AVC
Формат/Информация : Advanced Video Codec
Профиль формата : Main@L3.1
Параметр CABAC формата : Нет
Параметр ReFrames формата : 2 кадра
Параметр GOP формата : M=2, N=24
Идентификатор кодека : avc1
Идентификатор кодека/Информация : Advanced Video Coding
Продолжительность : 3 м. 26 с.
Продолжительность оригинала : 3 м. 26 с.
Битрейт : 2406 Кбит/сек
Ширина : 1280 пикселей
Высота : 720 пикселей
Соотношение сторон : 16:9
Режим частоты кадров : Постоянный
Частота кадров : 29,970 кадров/сек
Цветовое пространство : YUV
Субдискретизация насыщенности : 4:2:0
Битовая глубина : 8 бит
Тип развёртки : Прогрессивная
Бит/(Пиксели*Кадры) : 0.087
Размер потока : 59,3 Мбайт (95%)
Размер потока оригинала : 59,3 Мбайт (95%)
Язык : English
Дата кодирования : UTC 2014-09-06 20:42:16
Дата пометки : UTC 2014-09-06 20:48:37
Основные цвета : BT.709
Характеристики трансфера : BT.709
Коэффициенты матрицы : BT.709

Аудио
Идентификатор : 2
Формат : AAC
Формат/Информация : Advanced Audio Codec
Профиль формата : LC
Идентификатор кодека : 40
Продолжительность : 3 м. 26 с.
Продолжительность оригинала : 3 м. 26 с.
Вид битрейта : Постоянный
Битрейт : 128 Кбит/сек
Каналы : 2 канала
Расположение каналов : Front: L R
Частота : 44,1 КГц
Метод сжатия : С потерями
Размер потока : 3,17 Мбайт (5%)
Размер потока оригинала : 3,17 Мбайт (5%)
Язык : English
Дата кодирования : UTC 2014-09-06 20:42:17
Дата пометки : UTC 2014-09-06 20:48:37

Общее
Полное имя : D:\Архив\Клипы\Striplv\04. Olga Loera - Mami.mp4
Формат : MPEG-4
Профиль формата : Base Media / Version 2
Идентификатор кодека : mp42
Размер файла : 86,7 Мбайт
Продолжительность : 4 м. 37 с.
Общий поток : 2622 Кбит/сек
Дата кодирования : UTC 2014-07-04 07:04:40
Дата пометки : UTC 2014-07-04 07:54:53

Видео
Идентификатор : 1
Формат : AVC
Формат/Информация : Advanced Video Codec
Профиль формата : Main@L3.1
Параметр CABAC формата : Нет
Параметр ReFrames формата : 2 кадра
Параметр GOP формата : M=2, N=24
Идентификатор кодека : avc1
Идентификатор кодека/Информация : Advanced Video Coding
Продолжительность : 4 м. 37 с.
Продолжительность оригинала : 4 м. 37 с.
Битрейт : 2489 Кбит/сек
Ширина : 1280 пикселей
Высота : 720 пикселей
Соотношение сторон : 16:9
Режим частоты кадров : Постоянный
Частота кадров : 29,970 кадров/сек
Цветовое пространство : YUV
Субдискретизация насыщенности : 4:2:0
Битовая глубина : 8 бит
Тип развёртки : Прогрессивная
Бит/(Пиксели*Кадры) : 0.090
Размер потока : 82,3 Мбайт (95%)
Размер потока оригинала : 82,3 Мбайт (95%)
Язык : English
Дата кодирования : UTC 2014-07-04 07:45:17
Дата пометки : UTC 2014-07-04 07:54:53
Основные цвета : BT.709
Характеристики трансфера : BT.709
Коэффициенты матрицы : BT.709

Аудио
Идентификатор : 2
Формат : AAC
Формат/Информация : Advanced Audio Codec
Профиль формата : LC
Идентификатор кодека : 40
Продолжительность : 4 м. 37 с.
Продолжительность оригинала : 4 м. 37 с.
Вид битрейта : Постоянный
Битрейт : 128 Кбит/сек
Каналы : 2 канала
Расположение каналов : Front: L R
Частота : 44,1 КГц
Метод сжатия : С потерями
Размер потока : 4,24 Мбайт (5%)
Размер потока оригинала : 4,24 Мбайт (5%)
Язык : English
Дата кодирования : UTC 2014-07-04 07:45:17
Дата пометки : UTC 2014-07-04 07:54:53

Общее
Полное имя : D:\Архив\Клипы\Striplv\05. Cassie Laine - Pigtails.mp4
Формат : MPEG-4
Профиль формата : Base Media / Version 2
Идентификатор кодека : mp42
Размер файла : 43,4 Мбайт
Продолжительность : 2 м. 23 с.
Общий поток : 2530 Кбит/сек
Дата кодирования : UTC 2014-08-05 23:34:36
Дата пометки : UTC 2014-08-06 00:10:21

Видео
Идентификатор : 1
Формат : AVC
Формат/Информация : Advanced Video Codec
Профиль формата : Main@L3.1
Параметр CABAC формата : Нет
Параметр ReFrames формата : 2 кадра
Параметр GOP формата : M=2, N=24
Идентификатор кодека : avc1
Идентификатор кодека/Информация : Advanced Video Coding
Продолжительность : 2 м. 23 с.
Продолжительность оригинала : 2 м. 23 с.
Битрейт : 2399 Кбит/сек
Ширина : 1280 пикселей
Высота : 720 пикселей
Соотношение сторон : 16:9
Режим частоты кадров : Постоянный
Частота кадров : 29,970 кадров/сек
Цветовое пространство : YUV
Субдискретизация насыщенности : 4:2:0
Битовая глубина : 8 бит
Тип развёртки : Прогрессивная
Бит/(Пиксели*Кадры) : 0.087
Размер потока : 41,1 Мбайт (95%)
Размер потока оригинала : 41,1 Мбайт (95%)
Язык : English
Дата кодирования : UTC 2014-08-06 00:04:24
Дата пометки : UTC 2014-08-06 00:10:21
Основные цвета : BT.709
Характеристики трансфера : BT.709
Коэффициенты матрицы : BT.709

Аудио
Идентификатор : 2
Формат : AAC
Формат/Информация : Advanced Audio Codec
Профиль формата : LC
Идентификатор кодека : 40
Продолжительность : 2 м. 23 с.
Продолжительность оригинала : 2 м. 23 с.
Вид битрейта : Постоянный
Битрейт : 128 Кбит/сек
Каналы : 2 канала
Расположение каналов : Front: L R
Частота : 44,1 КГц
Метод сжатия : С потерями
Размер потока : 2,16 Мбайт (5%)
Размер потока оригинала : 2,16 Мбайт (5%)
Язык : English
Дата кодирования : UTC 2014-08-06 00:04:25
Дата пометки : UTC 2014-08-06 00:10:21

Общее
Полное имя : D:\Архив\Клипы\Striplv\06. Sophia Jade - Kiss and Tell.mp4
Формат : MPEG-4
Профиль формата : Base Media / Version 2
Идентификатор кодека : mp42
Размер файла : 192 Мбайт
Продолжительность : 5 м. 17 с.
Режим общего битрейта : Переменный
Общий поток : 5066 Кбит/сек
Дата кодирования : UTC 2013-08-07 02:03:39
Дата пометки : UTC 2013-08-07 02:49:36

Видео
Идентификатор : 1
Формат : AVC
Формат/Информация : Advanced Video Codec
Профиль формата : Main@L5.0
Параметр CABAC формата : Нет
Параметр ReFrames формата : 2 кадра
Параметр GOP формата : M=2, N=24
Идентификатор кодека : avc1
Идентификатор кодека/Информация : Advanced Video Coding
Продолжительность : 5 м. 17 с.
Продолжительность оригинала : 5 м. 17 с.
Вид битрейта : Переменный
Битрейт : 4933 Кбит/сек
Максимальный битрейт : 21,0 Мбит/сек
Ширина : 1280 пикселей
Высота : 720 пикселей
Соотношение сторон : 16:9
Режим частоты кадров : Постоянный
Частота кадров : 29,970 кадров/сек
Цветовое пространство : YUV
Субдискретизация насыщенности : 4:2:0
Битовая глубина : 8 бит
Тип развёртки : Прогрессивная
Бит/(Пиксели*Кадры) : 0.179
Размер потока : 187 Мбайт (97%)
Размер потока оригинала : 187 Мбайт (97%)
Язык : English
Дата кодирования : UTC 2013-08-07 02:43:20
Дата пометки : UTC 2013-08-07 02:49:36
Основные цвета : BT.709
Характеристики трансфера : BT.709
Коэффициенты матрицы : BT.709

Аудио
Идентификатор : 2
Формат : AAC
Формат/Информация : Advanced Audio Codec
Профиль формата : LC
Идентификатор кодека : 40
Продолжительность : 5 м. 15 с.
Вид битрейта : Постоянный
Битрейт : 128 Кбит/сек
Каналы : 2 канала
Расположение каналов : Front: L R
Частота : 44,1 КГц
Метод сжатия : С потерями
Размер потока : 4,85 Мбайт (3%)
Язык : English
Дата кодирования : UTC 2013-08-07 02:43:21
Дата пометки : UTC 2013-08-07 02:49:36

Общее
Полное имя : D:\Архив\Клипы\Striplv\07. Ashlyn Molloy - Purple Kush.mp4
Формат : MPEG-4
Профиль формата : Base Media / Version 2
Идентификатор кодека : mp42
Размер файла : 70,5 Мбайт
Продолжительность : 3 м. 46 с.
Общий поток : 2615 Кбит/сек
Дата кодирования : UTC 2014-06-05 16:47:41
Дата пометки : UTC 2014-06-05 17:22:56

Видео
Идентификатор : 1
Формат : AVC
Формат/Информация : Advanced Video Codec
Профиль формата : Main@L3.1
Параметр CABAC формата : Нет
Параметр ReFrames формата : 2 кадра
Параметр GOP формата : M=2, N=24
Идентификатор кодека : avc1
Идентификатор кодека/Информация : Advanced Video Coding
Продолжительность : 3 м. 46 с.
Продолжительность оригинала : 3 м. 46 с.
Битрейт : 2491 Кбит/сек
Ширина : 1280 пикселей
Высота : 720 пикселей
Соотношение сторон : 16:9
Режим частоты кадров : Постоянный
Частота кадров : 29,970 кадров/сек
Цветовое пространство : YUV
Субдискретизация насыщенности : 4:2:0
Битовая глубина : 8 бит
Тип развёртки : Прогрессивная
Бит/(Пиксели*Кадры) : 0.090
Размер потока : 67,2 Мбайт (95%)
Размер потока оригинала : 67,2 Мбайт (95%)
Язык : English
Дата кодирования : UTC 2014-06-05 17:18:05
Дата пометки : UTC 2014-06-05 17:22:56
Основные цвета : BT.709
Характеристики трансфера : BT.709
Коэффициенты матрицы : BT.709

Аудио
Идентификатор : 2
Формат : AAC
Формат/Информация : Advanced Audio Codec
Профиль формата : LC
Идентификатор кодека : 40
Продолжительность : 3 м. 34 с.
Вид битрейта : Постоянный
Битрейт : 128 Кбит/сек
Каналы : 2 канала
Расположение каналов : Front: L R
Частота : 44,1 КГц
Метод сжатия : С потерями
Размер потока : 3,21 Мбайт (5%)
Язык : English
Дата кодирования : UTC 2014-06-05 17:18:06
Дата пометки : UTC 2014-06-05 17:22:56

Общее
Полное имя : D:\Архив\Клипы\Striplv\08. Eufrat - Czech Mate.mp4
Формат : MPEG-4
Профиль формата : Base Media / Version 2
Идентификатор кодека : mp42
Размер файла : 70,1 Мбайт
Продолжительность : 4 м. 28 с.
Режим общего битрейта : Переменный
Общий поток : 2192 Кбит/сек
Дата кодирования : UTC 2015-01-06 00:49:46
Дата пометки : UTC 2015-01-06 00:49:46

Видео
Идентификатор : 1
Формат : AVC
Формат/Информация : Advanced Video Codec
Профиль формата : High@L3.1
Параметр CABAC формата : Да
Параметр ReFrames формата : 4 кадра
Идентификатор кодека : avc1
Идентификатор кодека/Информация : Advanced Video Coding
Продолжительность : 4 м. 28 с.
Битрейт : 2041 Кбит/сек
Ширина : 1280 пикселей
Высота : 720 пикселей
Соотношение сторон : 16:9
Режим частоты кадров : Постоянный
Частота кадров : 29,970 кадров/сек
Цветовое пространство : YUV
Субдискретизация насыщенности : 4:2:0
Битовая глубина : 8 бит
Тип развёртки : Прогрессивная
Бит/(Пиксели*Кадры) : 0.074
Размер потока : 65,3 Мбайт (93%)
Библиотека кодирования : x264 core 142 r11 24e4fed
Настройки программы : cabac=1 / ref=3 / deblock=1:0:0 / analyse=0x3:0x113 / me=hex / subme=7 / psy=1 / psy_rd=1.00:0.00 / mixed_ref=1 / me_range=16 / chroma_me=1 / trellis=1 / 8x8dct=1 / cqm=0 / deadzone=21,11 / fast_pskip=1 / chroma_qp_offset=-2 / threads=48 / lookahead_threads=5 / sliced_threads=0 / nr=0 / decimate=1 / interlaced=0 / bluray_compat=0 / stitchable=1 / constrained_intra=0 / bframes=3 / b_pyramid=2 / b_adapt=1 / b_bias=0 / direct=1 / weightb=1 / open_gop=0 / weightp=2 / keyint=infinite / keyint_min=29 / scenecut=40 / intra_refresh=0 / rc_lookahead=40 / rc=crf / mbtree=1 / crf=20.0 / qcomp=0.60 / qpmin=5 / qpmax=69 / qpstep=4 / vbv_maxrate=2750 / vbv_bufsize=7500 / crf_max=0.0 / nal_hrd=none / filler=0 / ip_ratio=1.40 / aq=1:1.00
Дата кодирования : UTC 2015-01-06 00:49:46
Дата пометки : UTC 2015-01-06 00:49:46
Основные цвета : BT.709
Характеристики трансфера : BT.709
Коэффициенты матрицы : BT.709

Аудио
Идентификатор : 2
Формат : AAC
Формат/Информация : Advanced Audio Codec
Профиль формата : LC
Идентификатор кодека : 40
Продолжительность : 4 м. 28 с.
Вид битрейта : Переменный
Битрейт : 147 Кбит/сек
Каналы : 2 канала
Расположение каналов : Front: L R
Частота : 48,0 КГц
Метод сжатия : С потерями
Размер потока : 4,70 Мбайт (7%)
Дата кодирования : UTC 2015-01-06 00:49:46
Дата пометки : UTC 2015-01-06 00:49:46

Общее
Полное имя : D:\Архив\Клипы\Striplv\09. Capria - Lust.mp4
Формат : MPEG-4
Профиль формата : Base Media / Version 2
Идентификатор кодека : mp42
Размер файла : 149 Мбайт
Продолжительность : 4 м. 15 с.
Общий поток : 4894 Кбит/сек
Дата кодирования : UTC 2014-04-05 00:27:06
Дата пометки : UTC 2014-04-05 01:00:13

Видео
Идентификатор : 1
Формат : AVC
Формат/Информация : Advanced Video Codec
Профиль формата : Main@L4.0
Параметр CABAC формата : Нет
Параметр ReFrames формата : 2 кадра
Параметр GOP формата : M=2, N=24
Идентификатор кодека : avc1
Идентификатор кодека/Информация : Advanced Video Coding
Продолжительность : 4 м. 15 с.
Продолжительность оригинала : 4 м. 15 с.
Битрейт : 4763 Кбит/сек
Ширина : 1920 пикселей
Высота : 1080 пикселей
Соотношение сторон : 16:9
Режим частоты кадров : Постоянный
Частота кадров : 29,970 кадров/сек
Цветовое пространство : YUV
Субдискретизация насыщенности : 4:2:0
Битовая глубина : 8 бит
Тип развёртки : Прогрессивная
Бит/(Пиксели*Кадры) : 0.077
Размер потока : 145 Мбайт (97%)
Размер потока оригинала : 145 Мбайт (97%)
Язык : English
Дата кодирования : UTC 2014-04-05 00:56:23
Дата пометки : UTC 2014-04-05 01:00:13
Основные цвета : BT.709
Характеристики трансфера : BT.709
Коэффициенты матрицы : BT.709

Аудио
Идентификатор : 2
Формат : AAC
Формат/Информация : Advanced Audio Codec
Профиль формата : LC
Идентификатор кодека : 40
Продолжительность : 4 м. 15 с.
Продолжительность оригинала : 4 м. 15 с.
Вид битрейта : Постоянный
Битрейт : 128 Кбит/сек
Каналы : 2 канала
Расположение каналов : Front: L R
Частота : 44,1 КГц
Метод сжатия : С потерями
Размер потока : 3,84 Мбайт (3%)
Размер потока оригинала : 3,84 Мбайт (3%)
Язык : English
Дата кодирования : UTC 2014-04-05 00:56:24
Дата пометки : UTC 2014-04-05 01:00:13

Общее
Полное имя : D:\Архив\Клипы\Striplv\10. Kortney Kane - Wet.mp4
Формат : MPEG-4
Профиль формата : Base Media / Version 2
Идентификатор кодека : mp42
Размер файла : 83,6 Мбайт
Продолжительность : 4 м. 29 с.
Общий поток : 2608 Кбит/сек
Дата кодирования : UTC 2014-10-06 23:05:57
Дата пометки : UTC 2014-10-06 23:28:41

Видео
Идентификатор : 1
Формат : AVC
Формат/Информация : Advanced Video Codec
Профиль формата : Main@L3.1
Параметр CABAC формата : Нет
Параметр ReFrames формата : 2 кадра
Параметр GOP формата : M=2, N=24
Идентификатор кодека : avc1
Идентификатор кодека/Информация : Advanced Video Coding
Продолжительность : 4 м. 29 с.
Продолжительность оригинала : 4 м. 29 с.
Битрейт : 2477 Кбит/сек
Ширина : 1280 пикселей
Высота : 720 пикселей
Соотношение сторон : 16:9
Режим частоты кадров : Постоянный
Частота кадров : 29,970 кадров/сек
Цветовое пространство : YUV
Субдискретизация насыщенности : 4:2:0
Битовая глубина : 8 бит
Тип развёртки : Прогрессивная
Бит/(Пиксели*Кадры) : 0.090
Размер потока : 79,4 Мбайт (95%)
Размер потока оригинала : 79,4 Мбайт (95%)
Язык : English
Дата кодирования : UTC 2014-10-06 23:25:59
Дата пометки : UTC 2014-10-06 23:28:41
Основные цвета : BT.709
Характеристики трансфера : BT.709
Коэффициенты матрицы : BT.709

Аудио
Идентификатор : 2
Формат : AAC
Формат/Информация : Advanced Audio Codec
Профиль формата : LC
Идентификатор кодека : 40
Продолжительность : 4 м. 29 с.
Продолжительность оригинала : 4 м. 29 с.
Вид битрейта : Постоянный
Битрейт : 128 Кбит/сек
Каналы : 2 канала
Расположение каналов : Front: L R
Частота : 44,1 КГц
Метод сжатия : С потерями
Размер потока : 4,04 Мбайт (5%)
Размер потока оригинала : 4,04 Мбайт (5%)
Язык : English
Дата кодирования : UTC 2014-10-06 23:26:00
Дата пометки : UTC 2014-10-06 23:28:41

Общее
Полное имя : D:\Архив\Клипы\Striplv\11. Nicole Aniston - Beauty.mp4
Формат : MPEG-4
Профиль формата : Base Media / Version 2
Идентификатор кодека : mp42
Размер файла : 159 Мбайт
Продолжительность : 4 м. 24 с.
Общий поток : 5046 Кбит/сек
Дата кодирования : UTC 2014-01-03 03:22:17
Дата пометки : UTC 2014-01-03 04:02:22

Видео
Идентификатор : 1
Формат : AVC
Формат/Информация : Advanced Video Codec
Профиль формата : Main@L3.1
Параметр CABAC формата : Нет
Параметр ReFrames формата : 2 кадра
Параметр GOP формата : M=2, N=24
Идентификатор кодека : avc1
Идентификатор кодека/Информация : Advanced Video Coding
Продолжительность : 4 м. 24 с.
Продолжительность оригинала : 4 м. 24 с.
Битрейт : 4925 Кбит/сек
Ширина : 1280 пикселей
Высота : 720 пикселей
Соотношение сторон : 16:9
Режим частоты кадров : Постоянный
Частота кадров : 29,970 кадров/сек
Цветовое пространство : YUV
Субдискретизация насыщенности : 4:2:0
Битовая глубина : 8 бит
Тип развёртки : Прогрессивная
Бит/(Пиксели*Кадры) : 0.178
Размер потока : 155 Мбайт (98%)
Размер потока оригинала : 155 Мбайт (98%)
Язык : English
Дата кодирования : UTC 2014-01-03 03:54:38
Дата пометки : UTC 2014-01-03 04:02:22
Основные цвета : BT.709
Характеристики трансфера : BT.709
Коэффициенты матрицы : BT.709

Аудио
Идентификатор : 2
Формат : AAC
Формат/Информация : Advanced Audio Codec
Профиль формата : LC
Идентификатор кодека : 40
Продолжительность : 4 м. 13 с.
Вид битрейта : Постоянный
Битрейт : 121 Кбит/сек
Номинальный битрейт : 128 Кбит/сек
Каналы : 2 канала
Расположение каналов : Front: L R
Частота : 44,1 КГц
Метод сжатия : С потерями
Размер потока : 3,66 Мбайт (2%)
Язык : English
Дата кодирования : UTC 2014-01-03 03:54:48
Дата пометки : UTC 2014-01-03 04:02:22

Общее
Полное имя : D:\Архив\Клипы\Striplv\12. Chanel Preston - Classic.mp4
Формат : MPEG-4
Профиль формата : Base Media / Version 2
Идентификатор кодека : mp42
Размер файла : 82,5 Мбайт
Продолжительность : 4 м. 26 с.
Общий поток : 2592 Кбит/сек
Дата кодирования : UTC 2014-08-06 13:16:22
Дата пометки : UTC 2014-08-06 13:22:57

Видео
Идентификатор : 1
Формат : AVC
Формат/Информация : Advanced Video Codec
Профиль формата : Main@L3.1
Параметр CABAC формата : Нет
Параметр ReFrames формата : 2 кадра
Параметр GOP формата : M=2, N=24
Идентификатор кодека : avc1
Идентификатор кодека/Информация : Advanced Video Coding
Продолжительность : 4 м. 26 с.
Продолжительность оригинала : 4 м. 26 с.
Битрейт : 2462 Кбит/сек
Ширина : 1280 пикселей
Высота : 720 пикселей
Соотношение сторон : 16:9
Режим частоты кадров : Постоянный
Частота кадров : 29,970 кадров/сек
Цветовое пространство : YUV
Субдискретизация насыщенности : 4:2:0
Битовая глубина : 8 бит
Тип развёртки : Прогрессивная
Бит/(Пиксели*Кадры) : 0.089
Размер потока : 78,3 Мбайт (95%)
Размер потока оригинала : 78,3 Мбайт (95%)
Язык : English
Дата кодирования : UTC 2014-08-06 13:16:23
Дата пометки : UTC 2014-08-06 13:22:57
Основные цвета : BT.709
Характеристики трансфера : BT.709
Коэффициенты матрицы : BT.709

Аудио
Идентификатор : 2
Формат : AAC
Формат/Информация : Advanced Audio Codec
Профиль формата : LC
Идентификатор кодека : 40
Продолжительность : 4 м. 26 с.
Продолжительность оригинала : 4 м. 26 с.
Вид битрейта : Постоянный
Битрейт : 128 Кбит/сек
Каналы : 2 канала
Расположение каналов : Front: L R
Частота : 44,1 КГц
Метод сжатия : С потерями
Размер потока : 3,99 Мбайт (5%)
Размер потока оригинала : 3,99 Мбайт (5%)
Язык : English
Дата кодирования : UTC 2014-08-06 13:16:24
Дата пометки : UTC 2014-08-06 13:22:57

Общее
Полное имя : D:\Архив\Клипы\Striplv\13. Veronica Ricci - Wonderland.mp4
Формат : MPEG-4
Профиль формата : Base Media / Version 2
Идентификатор кодека : mp42
Размер файла : 85,4 Мбайт
Продолжительность : 4 м. 36 с.
Общий поток : 2588 Кбит/сек
Дата кодирования : UTC 2014-05-06 00:02:49
Дата пометки : UTC 2014-05-06 00:44:03

Видео
Идентификатор : 1
Формат : AVC
Формат/Информация : Advanced Video Codec
Профиль формата : Main@L3.1
Параметр CABAC формата : Нет
Параметр ReFrames формата : 2 кадра
Параметр GOP формата : M=2, N=24
Идентификатор кодека : avc1
Идентификатор кодека/Информация : Advanced Video Coding
Продолжительность : 4 м. 36 с.
Продолжительность оригинала : 4 м. 36 с.
Битрейт : 2462 Кбит/сек
Ширина : 1280 пикселей
Высота : 720 пикселей
Соотношение сторон : 16:9
Режим частоты кадров : Постоянный
Частота кадров : 29,970 кадров/сек
Цветовое пространство : YUV
Субдискретизация насыщенности : 4:2:0
Битовая глубина : 8 бит
Тип развёртки : Прогрессивная
Бит/(Пиксели*Кадры) : 0.089
Размер потока : 81,3 Мбайт (95%)
Размер потока оригинала : 81,3 Мбайт (95%)
Язык : English
Дата кодирования : UTC 2014-05-06 00:37:59
Дата пометки : UTC 2014-05-06 00:44:03
Основные цвета : BT.709
Характеристики трансфера : BT.709
Коэффициенты матрицы : BT.709

Аудио
Идентификатор : 2
Формат : AAC
Формат/Информация : Advanced Audio Codec
Профиль формата : LC
Идентификатор кодека : 40
Продолжительность : 4 м. 27 с.
Вид битрейта : Постоянный
Битрейт : 128 Кбит/сек
Каналы : 2 канала
Расположение каналов : Front: L R
Частота : 44,1 КГц
Метод сжатия : С потерями
Размер потока : 4,00 Мбайт (5%)
Язык : English
Дата кодирования : UTC 2014-05-06 00:38:00
Дата пометки : UTC 2014-05-06 00:44:03

Общее
Полное имя : D:\Архив\Клипы\Striplv\14. Idelsy - Love natural.mp4
Формат : MPEG-4
Профиль формата : Base Media / Version 2
Идентификатор кодека : mp42
Размер файла : 77,3 Мбайт
Продолжительность : 4 м. 13 с.
Общий поток : 2561 Кбит/сек
Дата кодирования : UTC 2014-04-30 21:41:02
Дата пометки : UTC 2014-04-30 22:14:14

Видео
Идентификатор : 1
Формат : AVC
Формат/Информация : Advanced Video Codec
Профиль формата : Main@L3.1
Параметр CABAC формата : Нет
Параметр ReFrames формата : 2 кадра
Параметр GOP формата : M=2, N=24
Идентификатор кодека : avc1
Идентификатор кодека/Информация : Advanced Video Coding
Продолжительность : 4 м. 13 с.
Продолжительность оригинала : 4 м. 13 с.
Битрейт : 2428 Кбит/сек
Ширина : 1280 пикселей
Высота : 720 пикселей
Соотношение сторон : 16:9
Режим частоты кадров : Постоянный
Частота кадров : 29,970 кадров/сек
Цветовое пространство : YUV
Субдискретизация насыщенности : 4:2:0
Битовая глубина : 8 бит
Тип развёртки : Прогрессивная
Бит/(Пиксели*Кадры) : 0.088
Размер потока : 73,3 Мбайт (95%)
Размер потока оригинала : 73,3 Мбайт (95%)
Язык : English
Дата кодирования : UTC 2014-04-30 22:08:33
Дата пометки : UTC 2014-04-30 22:14:14
Основные цвета : BT.709
Характеристики трансфера : BT.709
Коэффициенты матрицы : BT.709

Аудио
Идентификатор : 2
Формат : AAC
Формат/Информация : Advanced Audio Codec
Профиль формата : LC
Идентификатор кодека : 40
Продолжительность : 4 м. 13 с.
Продолжительность оригинала : 4 м. 13 с.
Вид битрейта : Постоянный
Битрейт : 128 Кбит/сек
Каналы : 2 канала
Расположение каналов : Front: L R
Частота : 44,1 КГц
Метод сжатия : С потерями
Размер потока : 3,87 Мбайт (5%)
Размер потока оригинала : 3,87 Мбайт (5%)
Язык : English
Дата кодирования : UTC 2014-04-30 22:08:34
Дата пометки : UTC 2014-04-30 22:14:14

Общее
Полное имя : D:\Архив\Клипы\Striplv\15. Raven Rockette - Natural Muse.mp4
Формат : MPEG-4
Профиль формата : Base Media / Version 2
Идентификатор кодека : mp42
Размер файла : 70,9 Мбайт
Продолжительность : 3 м. 48 с.
Общий поток : 2601 Кбит/сек
Дата кодирования : UTC 2014-05-05 03:14:47
Дата пометки : UTC 2014-05-05 03:39:26

Видео
Идентификатор : 1
Формат : AVC
Формат/Информация : Advanced Video Codec
Профиль формата : Main@L3.1
Параметр CABAC формата : Нет
Параметр ReFrames формата : 2 кадра
Параметр GOP формата : M=2, N=24
Идентификатор кодека : avc1
Идентификатор кодека/Информация : Advanced Video Coding
Продолжительность : 3 м. 48 с.
Продолжительность оригинала : 3 м. 48 с.
Битрейт : 2481 Кбит/сек
Ширина : 1280 пикселей
Высота : 720 пикселей
Соотношение сторон : 16:9
Режим частоты кадров : Постоянный
Частота кадров : 29,970 кадров/сек
Цветовое пространство : YUV
Субдискретизация насыщенности : 4:2:0
Битовая глубина : 8 бит
Тип развёртки : Прогрессивная
Бит/(Пиксели*Кадры) : 0.090
Размер потока : 67,6 Мбайт (95%)
Размер потока оригинала : 67,6 Мбайт (95%)
Язык : English
Дата кодирования : UTC 2014-05-05 03:35:54
Дата пометки : UTC 2014-05-05 03:39:26
Основные цвета : BT.709
Характеристики трансфера : BT.709
Коэффициенты матрицы : BT.709

Аудио
Идентификатор : 2
Формат : AAC
Формат/Информация : Advanced Audio Codec
Профиль формата : LC
Идентификатор кодека : 40
Продолжительность : 3 м. 36 с.
Вид битрейта : Постоянный
Битрейт : 122 Кбит/сек
Номинальный битрейт : 128 Кбит/сек
Каналы : 2 канала
Расположение каналов : Front: L R
Частота : 44,1 КГц
Метод сжатия : С потерями
Размер потока : 3,13 Мбайт (4%)
Язык : English
Дата кодирования : UTC 2014-05-05 03:35:54
Дата пометки : UTC 2014-05-05 03:39:26

Общее
Полное имя : D:\Архив\Клипы\Striplv\16. Chloe Amour - Sweet Syrup.mp4
Формат : MPEG-4
Профиль формата : Base Media / Version 2
Идентификатор кодека : mp42
Размер файла : 195 Мбайт
Продолжительность : 5 м. 28 с.
Общий поток : 4983 Кбит/сек
Дата кодирования : UTC 2014-01-03 18:15:42
Дата пометки : UTC 2014-01-03 18:52:36

Видео
Идентификатор : 1
Формат : AVC
Формат/Информация : Advanced Video Codec
Профиль формата : Main@L3.1
Параметр CABAC формата : Нет
Параметр ReFrames формата : 2 кадра
Параметр GOP формата : M=2, N=24
Идентификатор кодека : avc1
Идентификатор кодека/Информация : Advanced Video Coding
Продолжительность : 5 м. 28 с.
Продолжительность оригинала : 5 м. 28 с.
Битрейт : 4859 Кбит/сек
Ширина : 1280 пикселей
Высота : 720 пикселей
Соотношение сторон : 16:9
Режим частоты кадров : Постоянный
Частота кадров : 29,970 кадров/сек
Цветовое пространство : YUV
Субдискретизация насыщенности : 4:2:0
Битовая глубина : 8 бит
Тип развёртки : Прогрессивная
Бит/(Пиксели*Кадры) : 0.176
Размер потока : 190 Мбайт (98%)
Размер потока оригинала : 190 Мбайт (98%)
Язык : English
Дата кодирования : UTC 2014-01-03 18:47:33
Дата пометки : UTC 2014-01-03 18:52:36
Основные цвета : BT.709
Характеристики трансфера : BT.709
Коэффициенты матрицы : BT.709

Аудио
Идентификатор : 2
Формат : AAC
Формат/Информация : Advanced Audio Codec
Профиль формата : LC
Идентификатор кодека : 40
Продолжительность : 5 м. 28 с.
Продолжительность оригинала : 5 м. 28 с.
Вид битрейта : Постоянный
Битрейт : 119 Кбит/сек
Номинальный битрейт : 128 Кбит/сек
Каналы : 2 канала
Расположение каналов : Front: L R
Частота : 44,1 КГц
Метод сжатия : С потерями
Размер потока : 4,67 Мбайт (2%)
Размер потока оригинала : 4,67 Мбайт (2%)
Язык : English
Дата кодирования : UTC 2014-01-03 18:47:44
Дата пометки : UTC 2014-01-03 18:52:36

Общее
Полное имя : D:\Архив\Клипы\Striplv\17. Danielle Trixie - Inside Danielle.mp4
Формат : MPEG-4
Профиль формата : Base Media / Version 2
Идентификатор кодека : mp42
Размер файла : 68,4 Мбайт
Продолжительность : 3 м. 40 с.
Общий поток : 2607 Кбит/сек
Дата кодирования : UTC 2013-04-07 09:17:50
Дата пометки : UTC 2013-04-07 09:23:40

Видео
Идентификатор : 1
Формат : AVC
Формат/Информация : Advanced Video Codec
Профиль формата : Main@L3.1
Параметр CABAC формата : Нет
Параметр ReFrames формата : 2 кадра
Параметр GOP формата : M=2, N=24
Идентификатор кодека : avc1
Идентификатор кодека/Информация : Advanced Video Coding
Продолжительность : 3 м. 40 с.
Продолжительность оригинала : 3 м. 40 с.
Битрейт : 2479 Кбит/сек
Ширина : 1280 пикселей
Высота : 720 пикселей
Соотношение сторон : 16:9
Режим частоты кадров : Постоянный
Частота кадров : 29,970 кадров/сек
Цветовое пространство : YUV
Субдискретизация насыщенности : 4:2:0
Битовая глубина : 8 бит
Тип развёртки : Прогрессивная
Бит/(Пиксели*Кадры) : 0.090
Размер потока : 65,0 Мбайт (95%)
Размер потока оригинала : 65,0 Мбайт (95%)
Язык : English
Дата кодирования : UTC 2013-04-07 09:17:50
Дата пометки : UTC 2013-04-07 09:23:40
Основные цвета : BT.709
Характеристики трансфера : BT.709
Коэффициенты матрицы : BT.709

Аудио
Идентификатор : 2
Формат : AAC
Формат/Информация : Advanced Audio Codec
Профиль формата : LC
Идентификатор кодека : 40
Продолжительность : 3 м. 39 с.
Вид битрейта : Постоянный
Битрейт : 128 Кбит/сек
Каналы : 2 канала
Расположение каналов : Front: L R
Частота : 44,1 КГц
Метод сжатия : С потерями
Размер потока : 3,24 Мбайт (5%)
Язык : English
Дата кодирования : UTC 2013-04-07 09:17:52
Дата пометки : UTC 2013-04-07 09:23:40

Общее
Полное имя : D:\Архив\Клипы\Striplv\18. Jayden Colet - Emptress.mp4
Формат : MPEG-4
Профиль формата : Base Media / Version 2
Идентификатор кодека : mp42
Размер файла : 55,9 Мбайт
Продолжительность : 3 м. 1 с.
Общий поток : 2583 Кбит/сек
Дата кодирования : UTC 2014-07-02 18:26:51
Дата пометки : UTC 2014-07-02 18:39:18

Видео
Идентификатор : 1
Формат : AVC
Формат/Информация : Advanced Video Codec
Профиль формата : Main@L3.1
Параметр CABAC формата : Нет
Параметр ReFrames формата : 2 кадра
Параметр GOP формата : M=2, N=24
Идентификатор кодека : avc1
Идентификатор кодека/Информация : Advanced Video Coding
Продолжительность : 3 м. 1 с.
Продолжительность оригинала : 3 м. 1 с.
Битрейт : 2456 Кбит/сек
Ширина : 1280 пикселей
Высота : 720 пикселей
Соотношение сторон : 16:9
Режим частоты кадров : Постоянный
Частота кадров : 29,970 кадров/сек
Цветовое пространство : YUV
Субдискретизация насыщенности : 4:2:0
Битовая глубина : 8 бит
Тип развёртки : Прогрессивная
Бит/(Пиксели*Кадры) : 0.089
Размер потока : 53,1 Мбайт (95%)
Размер потока оригинала : 53,1 Мбайт (95%)
Язык : English
Дата кодирования : UTC 2014-07-02 18:37:48
Дата пометки : UTC 2014-07-02 18:39:18
Основные цвета : BT.709
Характеристики трансфера : BT.709
Коэффициенты матрицы : BT.709

Аудио
Идентификатор : 2
Формат : AAC
Формат/Информация : Advanced Audio Codec
Профиль формата : LC
Идентификатор кодека : 40
Продолжительность : 2 м. 56 с.
Вид битрейта : Постоянный
Битрейт : 128 Кбит/сек
Каналы : 2 канала
Расположение каналов : Front: L R
Частота : 44,1 КГц
Метод сжатия : С потерями
Размер потока : 2,66 Мбайт (5%)
Язык : English
Дата кодирования : UTC 2014-07-02 18:37:48
Дата пометки : UTC 2014-07-02 18:39:18

Общее
Полное имя : D:\Архив\Клипы\Striplv\19. Marie Mccray - Ginger Au Naturale.mp4
Формат : MPEG-4
Профиль формата : Base Media / Version 2
Идентификатор кодека : mp42
Размер файла : 54,7 Мбайт
Продолжительность : 3 м. 0 с.
Общий поток : 2536 Кбит/сек
Дата кодирования : UTC 2014-09-04 21:43:13
Дата пометки : UTC 2014-09-04 22:01:55

Видео
Идентификатор : 1
Формат : AVC
Формат/Информация : Advanced Video Codec
Профиль формата : Main@L3.1
Параметр CABAC формата : Нет
Параметр ReFrames формата : 2 кадра
Параметр GOP формата : M=2, N=24
Идентификатор кодека : avc1
Идентификатор кодека/Информация : Advanced Video Coding
Продолжительность : 3 м. 0 с.
Продолжительность оригинала : 3 м. 0 с.
Битрейт : 2404 Кбит/сек
Ширина : 1280 пикселей
Высота : 720 пикселей
Соотношение сторон : 16:9
Режим частоты кадров : Постоянный
Частота кадров : 29,970 кадров/сек
Цветовое пространство : YUV
Субдискретизация насыщенности : 4:2:0
Битовая глубина : 8 бит
Тип развёртки : Прогрессивная
Бит/(Пиксели*Кадры) : 0.087
Размер потока : 51,8 Мбайт (95%)
Размер потока оригинала : 51,8 Мбайт (95%)
Язык : English
Дата кодирования : UTC 2014-09-04 21:59:42
Дата пометки : UTC 2014-09-04 22:01:55
Основные цвета : BT.709
Характеристики трансфера : BT.709
Коэффициенты матрицы : BT.709

Аудио
Идентификатор : 2
Формат : AAC
Формат/Информация : Advanced Audio Codec
Профиль формата : LC
Идентификатор кодека : 40
Продолжительность : 3 м. 0 с.
Продолжительность оригинала : 3 м. 0 с.
Вид битрейта : Постоянный
Битрейт : 128 Кбит/сек
Каналы : 2 канала
Расположение каналов : Front: L R
Частота : 44,1 КГц
Метод сжатия : С потерями
Размер потока : 2,72 Мбайт (5%)
Размер потока оригинала : 2,72 Мбайт (5%)
Язык : English
Дата кодирования : UTC 2014-09-04 21:59:43
Дата пометки : UTC 2014-09-04 22:01:55

Общее
Полное имя : D:\Архив\Клипы\Striplv\20. Claire Sinclair - Pin up.mp4
Формат : MPEG-4
Профиль формата : Base Media / Version 2
Идентификатор кодека : mp42
Размер файла : 51,0 Мбайт
Продолжительность : 2 м. 46 с.
Общий поток : 2567 Кбит/сек
Дата кодирования : UTC 2014-10-04 22:22:46
Дата пометки : UTC 2014-10-04 22:40:10

Видео
Идентификатор : 1
Формат : AVC
Формат/Информация : Advanced Video Codec
Профиль формата : Main@L3.1
Параметр CABAC формата : Нет
Параметр ReFrames формата : 2 кадра
Параметр GOP формата : M=2, N=24
Идентификатор кодека : avc1
Идентификатор кодека/Информация : Advanced Video Coding
Продолжительность : 2 м. 46 с.
Продолжительность оригинала : 2 м. 46 с.
Битрейт : 2434 Кбит/сек
Ширина : 1280 пикселей
Высота : 720 пикселей
Соотношение сторон : 16:9
Режим частоты кадров : Постоянный
Частота кадров : 29,970 кадров/сек
Цветовое пространство : YUV
Субдискретизация насыщенности : 4:2:0
Битовая глубина : 8 бит
Тип развёртки : Прогрессивная
Бит/(Пиксели*Кадры) : 0.088
Размер потока : 48,4 Мбайт (95%)
Размер потока оригинала : 48,4 Мбайт (95%)
Язык : English
Дата кодирования : UTC 2014-10-04 22:38:14
Дата пометки : UTC 2014-10-04 22:40:10
Основные цвета : BT.709
Характеристики трансфера : BT.709
Коэффициенты матрицы : BT.709

Аудио
Идентификатор : 2
Формат : AAC
Формат/Информация : Advanced Audio Codec
Профиль формата : LC
Идентификатор кодека : 40
Продолжительность : 2 м. 46 с.
Продолжительность оригинала : 2 м. 46 с.
Вид битрейта : Постоянный
Битрейт : 128 Кбит/сек
Каналы : 2 канала
Расположение каналов : Front: L R
Частота : 44,1 КГц
Метод сжатия : С потерями
Размер потока : 2,53 Мбайт (5%)
Размер потока оригинала : 2,53 Мбайт (5%)
Язык : English
Дата кодирования : UTC 2014-10-04 22:38:14
Дата пометки : UTC 2014-10-04 22:40:10

Общее
Полное имя : D:\Архив\Клипы\Striplv\21. Elle Alexandra - Has a Secret feeling edit.mp4
Формат : MPEG-4
Профиль формата : Base Media / Version 2
Идентификатор кодека : mp42
Размер файла : 85,6 Мбайт
Продолжительность : 3 м. 26 с.
Режим общего битрейта : Переменный
Общий поток : 3478 Кбит/сек
Дата кодирования : UTC 2013-09-06 23:43:11
Дата пометки : UTC 2013-09-07 00:04:05

Видео
Идентификатор : 1
Формат : AVC
Формат/Информация : Advanced Video Codec
Профиль формата : Main@L5.0
Параметр CABAC формата : Нет
Параметр ReFrames формата : 2 кадра
Параметр GOP формата : M=2, N=24
Идентификатор кодека : avc1
Идентификатор кодека/Информация : Advanced Video Coding
Продолжительность : 3 м. 26 с.
Продолжительность оригинала : 3 м. 26 с.
Вид битрейта : Переменный
Битрейт : 3346 Кбит/сек
Максимальный битрейт : 21,0 Мбит/сек
Ширина : 1280 пикселей
Высота : 720 пикселей
Соотношение сторон : 16:9
Режим частоты кадров : Постоянный
Частота кадров : 29,970 кадров/сек
Цветовое пространство : YUV
Субдискретизация насыщенности : 4:2:0
Битовая глубина : 8 бит
Тип развёртки : Прогрессивная
Бит/(Пиксели*Кадры) : 0.121
Размер потока : 82,3 Мбайт (96%)
Размер потока оригинала : 82,3 Мбайт (96%)
Язык : English
Дата кодирования : UTC 2013-09-07 00:00:49
Дата пометки : UTC 2013-09-07 00:04:05
Основные цвета : BT.709
Характеристики трансфера : BT.709
Коэффициенты матрицы : BT.709

Аудио
Идентификатор : 2
Формат : AAC
Формат/Информация : Advanced Audio Codec
Профиль формата : LC
Идентификатор кодека : 40
Продолжительность : 3 м. 26 с.
Продолжительность оригинала : 3 м. 26 с.
Вид битрейта : Постоянный
Битрейт : 128 Кбит/сек
Каналы : 2 канала
Расположение каналов : Front: L R
Частота : 44,1 КГц
Метод сжатия : С потерями
Размер потока : 3,13 Мбайт (4%)
Размер потока оригинала : 3,13 Мбайт (4%)
Язык : English
Дата кодирования : UTC 2013-09-07 00:00:59
Дата пометки : UTC 2013-09-07 00:04:05

Общее
Полное имя : D:\Архив\Клипы\Striplv\22. Jesse Janenerd.mp4
Формат : MPEG-4
Профиль формата : Base Media / Version 2
Идентификатор кодека : mp42
Размер файла : 144 Мбайт
Продолжительность : 3 м. 57 с.
Общий поток : 5080 Кбит/сек
Дата кодирования : UTC 2014-03-04 03:30:20
Дата пометки : UTC 2014-03-04 04:04:34

Видео
Идентификатор : 1
Формат : AVC
Формат/Информация : Advanced Video Codec
Профиль формата : Main@L4.0
Параметр CABAC формата : Нет
Параметр ReFrames формата : 2 кадра
Параметр GOP формата : M=2, N=24
Идентификатор кодека : avc1
Идентификатор кодека/Информация : Advanced Video Coding
Продолжительность : 3 м. 57 с.
Продолжительность оригинала : 3 м. 57 с.
Битрейт : 4955 Кбит/сек
Ширина : 1920 пикселей
Высота : 1080 пикселей
Соотношение сторон : 16:9
Режим частоты кадров : Постоянный
Частота кадров : 29,970 кадров/сек
Цветовое пространство : YUV
Субдискретизация насыщенности : 4:2:0
Битовая глубина : 8 бит
Тип развёртки : Прогрессивная
Бит/(Пиксели*Кадры) : 0.080
Размер потока : 140 Мбайт (98%)
Размер потока оригинала : 140 Мбайт (98%)
Язык : English
Дата кодирования : UTC 2014-03-04 04:00:44
Дата пометки : UTC 2014-03-04 04:04:34
Основные цвета : BT.709
Характеристики трансфера : BT.709
Коэффициенты матрицы : BT.709

Аудио
Идентификатор : 2
Формат : AAC
Формат/Информация : Advanced Audio Codec
Профиль формата : LC
Идентификатор кодека : 40
Продолжительность : 3 м. 44 с.
Вид битрейта : Постоянный
Битрейт : 128 Кбит/сек
Каналы : 2 канала
Расположение каналов : Front: L R
Частота : 44,1 КГц
Метод сжатия : С потерями
Размер потока : 3,40 Мбайт (2%)
Язык : English
Дата кодирования : UTC 2014-03-04 04:00:45
Дата пометки : UTC 2014-03-04 04:04:34

Общее
Полное имя : D:\Архив\Клипы\Striplv\23. Kendall Karson - 30 minutes with.mp4
Формат : MPEG-4
Профиль формата : Base Media / Version 2
Идентификатор кодека : mp42
Размер файла : 103 Мбайт
Продолжительность : 2 м. 51 с.
Общий поток : 5046 Кбит/сек
Дата кодирования : UTC 2014-01-04 01:00:17
Дата пометки : UTC 2014-01-04 01:18:32

Видео
Идентификатор : 1
Формат : AVC
Формат/Информация : Advanced Video Codec
Профиль формата : Main@L3.1
Параметр CABAC формата : Нет
Параметр ReFrames формата : 2 кадра
Параметр GOP формата : M=2, N=24
Идентификатор кодека : avc1
Идентификатор кодека/Информация : Advanced Video Coding
Продолжительность : 2 м. 51 с.
Продолжительность оригинала : 2 м. 51 с.
Битрейт : 4916 Кбит/сек
Ширина : 1280 пикселей
Высота : 720 пикселей
Соотношение сторон : 16:9
Режим частоты кадров : Постоянный
Частота кадров : 29,970 кадров/сек
Цветовое пространство : YUV
Субдискретизация насыщенности : 4:2:0
Битовая глубина : 8 бит
Тип развёртки : Прогрессивная
Бит/(Пиксели*Кадры) : 0.178
Размер потока : 100 Мбайт (97%)
Размер потока оригинала : 100 Мбайт (97%)
Язык : English
Дата кодирования : UTC 2014-01-04 01:16:01
Дата пометки : UTC 2014-01-04 01:18:32
Основные цвета : BT.709
Характеристики трансфера : BT.709
Коэффициенты матрицы : BT.709

Аудио
Идентификатор : 2
Формат : AAC
Формат/Информация : Advanced Audio Codec
Профиль формата : LC
Идентификатор кодека : 40
Продолжительность : 2 м. 51 с.
Продолжительность оригинала : 2 м. 51 с.
Вид битрейта : Постоянный
Битрейт : 128 Кбит/сек
Каналы : 2 канала
Расположение каналов : Front: L R
Частота : 44,1 КГц
Метод сжатия : С потерями
Размер потока : 2,55 Мбайт (2%)
Размер потока оригинала : 2,55 Мбайт (2%)
Язык : English
Дата кодирования : UTC 2014-01-04 01:16:02
Дата пометки : UTC 2014-01-04 01:18:32

Общее
Полное имя : D:\Архив\Клипы\Striplv\24. Rilynn Rae - Of light.mp4
Формат : MPEG-4
Профиль формата : Base Media / Version 2
Идентификатор кодека : mp42
Размер файла : 47,0 Мбайт
Продолжительность : 2 м. 33 с.
Общий поток : 2569 Кбит/сек
Дата кодирования : UTC 2014-09-04 17:24:12
Дата пометки : UTC 2014-09-04 17:50:24

Видео
Идентификатор : 1
Формат : AVC
Формат/Информация : Advanced Video Codec
Профиль формата : Main@L3.1
Параметр CABAC формата : Нет
Параметр ReFrames формата : 2 кадра
Параметр GOP формата : M=2, N=24
Идентификатор кодека : avc1
Идентификатор кодека/Информация : Advanced Video Coding
Продолжительность : 2 м. 33 с.
Продолжительность оригинала : 2 м. 33 с.
Битрейт : 2434 Кбит/сек
Ширина : 1280 пикселей
Высота : 720 пикселей
Соотношение сторон : 16:9
Режим частоты кадров : Постоянный
Частота кадров : 29,970 кадров/сек
Цветовое пространство : YUV
Субдискретизация насыщенности : 4:2:0
Битовая глубина : 8 бит
Тип развёртки : Прогрессивная
Бит/(Пиксели*Кадры) : 0.088
Размер потока : 44,6 Мбайт (95%)
Размер потока оригинала : 44,6 Мбайт (95%)
Язык : English
Дата кодирования : UTC 2014-09-04 17:48:21
Дата пометки : UTC 2014-09-04 17:50:24
Основные цвета : BT.709
Характеристики трансфера : BT.709
Коэффициенты матрицы : BT.709

Аудио
Идентификатор : 2
Формат : AAC
Формат/Информация : Advanced Audio Codec
Профиль формата : LC
Идентификатор кодека : 40
Продолжительность : 2 м. 33 с.
Продолжительность оригинала : 2 м. 33 с.
Вид битрейта : Постоянный
Битрейт : 128 Кбит/сек
Каналы : 2 канала
Расположение каналов : Front: L R
Частота : 44,1 КГц
Метод сжатия : С потерями
Размер потока : 2,38 Мбайт (5%)
Размер потока оригинала : 2,38 Мбайт (5%)
Язык : English
Дата кодирования : UTC 2014-09-04 17:48:22
Дата пометки : UTC 2014-09-04 17:50:24

Общее
Полное имя : D:\Архив\Клипы\Striplv\25. Sovereign Syre - Slave.mp4
Формат : MPEG-4
Профиль формата : Base Media / Version 2
Идентификатор кодека : mp42
Размер файла : 115 Мбайт
Продолжительность : 6 м. 17 с.
Общий поток : 2569 Кбит/сек
Дата кодирования : UTC 2014-06-05 00:49:50
Дата пометки : UTC 2014-06-05 01:47:40

Видео
Идентификатор : 1
Формат : AVC
Формат/Информация : Advanced Video Codec
Профиль формата : Main@L3.1
Параметр CABAC формата : Нет
Параметр ReFrames формата : 2 кадра
Параметр GOP формата : M=2, N=24
Идентификатор кодека : avc1
Идентификатор кодека/Информация : Advanced Video Coding
Продолжительность : 6 м. 17 с.
Продолжительность оригинала : 6 м. 17 с.
Битрейт : 2448 Кбит/сек
Ширина : 1280 пикселей
Высота : 720 пикселей
Соотношение сторон : 16:9
Режим частоты кадров : Постоянный
Частота кадров : 29,970 кадров/сек
Цветовое пространство : YUV
Субдискретизация насыщенности : 4:2:0
Битовая глубина : 8 бит
Тип развёртки : Прогрессивная
Бит/(Пиксели*Кадры) : 0.089
Размер потока : 110 Мбайт (95%)
Размер потока оригинала : 110 Мбайт (95%)
Язык : English
Дата кодирования : UTC 2014-06-05 01:39:50
Дата пометки : UTC 2014-06-05 01:47:40
Основные цвета : BT.709
Характеристики трансфера : BT.709
Коэффициенты матрицы : BT.709

Аудио
Идентификатор : 2
Формат : AAC
Формат/Информация : Advanced Audio Codec
Профиль формата : LC
Идентификатор кодека : 40
Продолжительность : 6 м. 4 с.
Вид битрейта : Постоянный
Битрейт : 119 Кбит/сек
Номинальный битрейт : 128 Кбит/сек
Каналы : 2 канала
Расположение каналов : Front: L R
Частота : 44,1 КГц
Метод сжатия : С потерями
Размер потока : 5,18 Мбайт (4%)
Язык : English
Дата кодирования : UTC 2014-06-05 01:39:51
Дата пометки : UTC 2014-06-05 01:47:40

скриншот  pb.wtf



Скачать СтрипЛв через торрент https://pic1.kartinco.top/images/81/cjsdk.jpg Скачать, смотреть онлайн СтрипЛв бесплантно в хорошем качестве Описание: Красивые и азартные девушки показывают всё что умеют!STRIPLV - The Sexiest Magazine on the Planet! Maddy - Oreilly Maddy ... 9.2 10 23
Info! Золотая раздача, скачанное не засчитывается.
Торрент: Зарегистрирован [2015-01-06 17:08] · скачан: 461 раз
Статус: √ проверено
Размер: 2.29 GB
Как cкачать? Как скачать СтрипЛв через торрент | UTorrent

28-11-2019 20:33  

Отключить всю рекламу на сайте

06-01-2015 17:27 СтрипЛв Скачать торрент  

terras писал(а):

Красивые и азартные девушки показывают всё что умеют!

прямо всё?)pb.wtf



06-01-2015 17:33 СтрипЛв Скачать торрент  

haizenberg писал(а):

terras писал(а):

Красивые и азартные девушки показывают всё что умеют!

прямо всё?)

Ну.... для "всё" есть другие фильмы, но если обливает себя всю шоколадным сиропом и при этом ещё мастурбирует, тогда всё!pb.wtf



06-01-2015 19:52 СтрипЛв Скачать торрент  

Девочки просто супер!!! pb.wtf



    Дорогой пользователь! Огромная просьба, поблагодарите релизера, оцените раздачу и оставьте свои комментарий, если Вы скачали СтрипЛв через торрент бесплатно!
    Комментировать посты могут только пользователи прошедшие не сложную регистрацию
    Показать сообщения:    

    СтрипЛв через торрент
    Скачать бесплатно СтрипЛв
    СтрипЛв скачать торрент
    СтрипЛв смотреть онлайн
    Cкачать фильм СтрипЛв бесплатно
    СтрипЛв скачать торрент в хорошем качестве
    СтрипЛв смотреть онлайн бесплатно в хорошем качестве


    Вы не можете начинать темы
    Вы не можете отвечать на сообщения
    Вы не можете редактировать свои сообщения
    Вы не можете удалять свои сообщения
    Вы не можете голосовать в опросах
    Вы не можете прикреплять файлы к сообщениям
    Вы можете скачивать файлы