Ссылка на приватное зеркало всего за 1$. Внимание количество ограничено!!!

iTunes

iTunes

iTunes

1

iTunes

iTunes

iTunes

iTunes

iTunes

30
pack

$ от Little Big

ВАЖНО

!!Акция!!

Alien_RageХит недели

RePack

Resident Evil 21

ИГРА 18+

pack

RePack

jed

!!Акция!!

Alien_Rage

RePack

fifa19

RePack

Assassins Creed: Odyssey

RePack

NEED FOR SPEED™ PAYBACK

4 сезон

9 сезон

Бесстыжие 9 сезон

Все сериалы

все сериалы на PB.wtf

RePack

FAR CRY 5
  

Курандеро / Шаман / Curandero (Эдуардо Родригез / Eduardo Rodriguez) [2005, США, Мексика, ужасы, WEB-DL 720p, Любительский (двухголосый)[den904, DeadSno] pb.wtf

Курандеро через торрент pb.wtf

Размер: 3.04 GB | Добавлен: 5 лет 6 мес. назад | Торрент скачан:44 раза
Скачать  

07-01-2015 03:32 Курандеро Скачать торрент  

Курандеро / Шаман / Curandero


  • Год выпуска: 2005
  • Страна: США, Мексика
  • Жанр: ужасы
  • Продолжительность: 01:35:30
  • Перевод: Любительский (двухголосый)[den904, DeadSno]

  • Режиссер: Эдуардо Родригез / Eduardo Rodriguez
  • В ролях:

    Карлос Гальярдо (Carlos), Гизет Галатэа (Magdalena), Габриэль Пингаррон (Castaneda), Хосе Карлос Руис (Don Carlos), Хорхе Сепеда (Comandante), Серхио Акоста (Oscar), Эрнесто Яньес (Don Chi Chi), Хавьер Эскобар (Alex), Элихио Мелендес (Gomez), Рене Камперо (Blascoe), Антонио Монрой (Roberto), Хорхе Абрахам (Senior M)

  • Описание:
    Карлос – сын известного мексиканского шамана. По просьбе молодого детектива Магдалены Карлос едет в старый дом, чтобы очистить его от зла. Карлос не знал, чем обернется для него простой ритуал очищения. Он знал не всю правду о том, что происходило в этом доме. Места темных ритуалов всегда окружает зло. Демоны чувствуют их и приходят сюда, чтобы решить – помиловать странника или уничтожить. Молодому колдуну нужно отправиться по Мексике, чтобы изучить паранормальные, мрачные места. Его интересует древняя магия, ритуалы. Карлосу придется выяснить, как победить тысячелетние силы зла и могущественного шамана.
  • Рейтинг:



  • Качество: WEB-DL 720p
  • Формат: :MKV
  • Видео кодек: AVC
  • Аудио кодек: AC3
  • Видео: 1280x716 (16:9), 3891 kbps, 23,976 fps, 0,177 bpp
  • Аудио №1: русский / 2.0 / 48 kHz / 192 kbps / 16 bit
  • Аудио №2: Spanish / 5.1 / 48 kHz / 384 kbps / 16 bit
  • Релиз от: GEKADOL

    Код:

    General
    Unique ID                                : 237985423921642496919830909317086077472 (0xB30A534F1B9434CF8DE27A5285766220)
    Complete name                            : I:\Curandero.2005.WEB-DL.720p.CINEMANIA.mkv
    Format                                   : Matroska
    Format version                           : Version 4 / Version 2
    File size                                : 3.04 GiB
    Duration                                 : 1h 35mn
    Overall bit rate                         : 4 558 Kbps
    Movie name                               : CINEMANIA.CC
    Encoded date                             : UTC 2013-11-02 14:53:26
    Writing application                      : mkvmerge v6.5.0 ('Isn't she lovely') built on Oct 20 2013 12:50:05
    Writing library                          : libebml v1.3.0 + libmatroska v1.4.1

    Video
    ID                                       : 1
    Format                                   : AVC
    Format/Info                              : Advanced Video Codec
    Format profile                           : High@L3.1
    Format settings, CABAC                   : No
    Format settings, ReFrames                : 2 frames
    Codec ID                                 : V_MPEG4/ISO/AVC
    Duration                                 : 1h 35mn
    Bit rate                                 : 3 891 Kbps
    Width                                    : 1 280 pixels
    Height                                   : 716 pixels
    Display aspect ratio                     : 16:9
    Frame rate                               : 23.976 fps
    Color space                              : YUV
    Chroma subsampling                       : 4:2:0
    Bit depth                                : 8 bits
    Scan type                                : Progressive
    Bits/(Pixel*Frame)                       : 0.177
    Stream size                              : 2.60 GiB (85%)
    Title                                    : CINEMANIA.CC
    Language                                 : Spanish
    Default                                  : Yes
    Forced                                   : No
    Color primaries                          : BT.709-5, BT.1361, IEC 61966-2-4, SMPTE RP177
    Transfer characteristics                 : BT.709-5, BT.1361
    Matrix coefficients                      : BT.709-5, BT.1361, IEC 61966-2-4 709, SMPTE RP177

    Audio #1
    ID                                       : 2
    Format                                   : AC-3
    Format/Info                              : Audio Coding 3
    Mode extension                           : CM (complete main)
    Codec ID                                 : A_AC3
    Duration                                 : 1h 35mn
    Bit rate mode                            : Constant
    Bit rate                                 : 192 Kbps
    Channel(s)                               : 2 channels
    Channel positions                        : Front: L R
    Sampling rate                            : 48.0 KHz
    Bit depth                                : 16 bits
    Compression mode                         : Lossy
    Stream size                              : 131 MiB (4%)
    Title                                    : DeadSno & den904
    Language                                 : Russian
    Default                                  : Yes
    Forced                                   : Yes

    Audio #2
    ID                                       : 3
    Format                                   : AC-3
    Format/Info                              : Audio Coding 3
    Mode extension                           : CM (complete main)
    Codec ID                                 : A_AC3
    Duration                                 : 1h 35mn
    Bit rate mode                            : Constant
    Bit rate                                 : 384 Kbps
    Channel(s)                               : 6 channels
    Channel positions                        : Front: L C R, Side: L R, LFE
    Sampling rate                            : 48.0 KHz
    Bit depth                                : 16 bits
    Compression mode                         : Lossy
    Stream size                              : 262 MiB (8%)
    Language                                 : Spanish
    Default                                  : No
    Forced                                   : No

    Menu
    00:00:00.000                             : en:Chapter 1
    00:03:13.000                             : en:Chapter 2
    00:11:13.000                             : en:Chapter 3
    00:20:42.000                             : en:Chapter 4
    00:28:16.000                             : en:Chapter 5
    00:36:23.000                             : en:Chapter 6
    00:45:52.000                             : en:Chapter 7
    00:53:20.000                             : en:Chapter 8
    01:03:26.000                             : en:Chapter 9
    01:12:20.000                             : en:Chapter 10
    01:20:38.000                             : en:Chapter 11
    01:31:54.000                             : en:Chapter 12




    Скриншоты:



    pb.wtf



  • Скачать Курандеро через торрент http://i64.fastpic.ru/big/2015/0107/36/fb8b284f41ee1e35e670496a5a860336.jpg Скачать фильм Курандеро через торрент бесплантно в хорошем качестве Описание: Карлос – сын известного мексиканского шамана. По просьбе молодого детектива Магдалены Карлос едет в старый дом, чтобы очистить ... 10 10 4
    Торрент: Зарегистрирован [2015-01-07 03:32] · скачан: 44 раз
    Статус: T временная
    Размер: 3.04 GB
    Как cкачать? Как скачать Курандеро через торрент | qTorrent

    28-11-2019 20:33  

    Отключить всю рекламу на сайте

      Дорогой пользователь! Огромная просьба, поблагодарите релизера, оцените раздачу и оставьте свои комментарий, если Вы скачали Курандеро через торрент бесплатно! Внесите свою лепту в развитие PiratBit!
      Комментировать посты могут только пользователи прошедшие не сложную регистрацию
      Показать сообщения:    

      Курандеро через торрент
      Скачать бесплатно Курандеро
      Курандеро скачать торрент
      Курандеро смотреть онлайн
      Cкачать фильм Курандеро бесплатно
      Курандеро скачать торрент в хорошем качестве
      Курандеро смотреть онлайн бесплатно в хорошем качестве


      Вы не можете начинать темы
      Вы не можете отвечать на сообщения
      Вы не можете редактировать свои сообщения
      Вы не можете удалять свои сообщения
      Вы не можете голосовать в опросах
      Вы не можете прикреплять файлы к сообщениям
      Вы можете скачивать файлы