Ссылка на приватное зеркало нашего сайта всего за 1$. Внимание количество ограничено!!!

2 сезон

iTunes

1 сезон

1

iTunes

iTunes

iTunes

1 сезон

RePack

30

ИГРА 18+

pack

ВАЖНО

!!Акция!!

Alien_RageХит недели

RePack

MK11
pack

Забери бонус

RePack

jed

!!Акция!!

Alien_Rage

RePack

fifa19

RePack

Assassins Creed: Odyssey

RePack

NEED FOR SPEED™ PAYBACK

4 сезон

9 сезон

Бесстыжие 9 сезон

Все сериалы

все сериалы на PB.wtf

RePack

FAR CRY 5
  

Деловая женщина / Working Girl (Майк Николс) [1988, драма, мелодрама, комедия, BDRip 1080p] DUB, MVO, 2 x AVO pb.wtf

Деловая женщина через торрент pb.wtf

Размер: 20.35 GB | Добавлен: 5 лет 9 мес. назад | Торрент скачан:13 раз
Скачать  

07-01-2015 08:49 Деловая женщина Скачать торрент  

Деловая женщина / Working Girl

Год выпуска: 1988
Страна: США
Жанр: драма, мелодрама, комедия
Продолжительность: 01:53:31
Перевод: дублированный, профессиональный многоголосый, авторский
Субтитры: русские, английские (для слабослышащих)

Режиссёр: Майк Николс

В ролях: Мелани Гриффит, Харрисон Форд, Сигурни Уивер, Алек Болдуин, Джоан Кьюсак, Филип Боско, Нора Данн, Оливер Плэтт, Джеймс Лэлли, Кевин Спейси, Дэвид Духовны, Олимпия Дукакис, Эми Акино, Джеффри Нордлинг, Элизабет Уиткрафт, Зэк Гренье, Барбара Гэррик, Рики Лейк, Тимоти Кархарт

Описание: Предприимчивая машинистка Тесс Мак'Гилл мечтает о головокружительной карьере, но на пути к осуществлению мечты стоит серьёзная преграда: она не умеет одеваться, стричься, общаться с нужными людьми. Но каждому человеку даётся шанс устроить свою жизнь. Такой шанс был дан и Мак'Гилл. Она получила возможность выступить в роли руководителя высшего звена, когда её начальница сломала ногу, отдыхая в Альпах. Незамедлительно Тесс занимает её место, знакомится с биржевым брокером и заключает крупную сделку. Когда отдохнувшая и выздоровевшая начальница возвращается на работу, она понимает, что место её занято, жених ушел к другой, и существует миллион других мелких неприятностей...



Качество: BDRip 1080p Сравнение с исходником
Формат: MKV
Видео кодек: H.264
Аудио кодек: AC3, DTS
Видео: 18.9 Mбит/с, 1920x1036, 23.976 кадра/с, 0.397 bpp
Аудио 1: русский, AC3, 192 kbps, 2 ch, 48 kHz [дублированный]
Аудио 2: русский, DTS, 1509 kbps, 6 ch, 48 kHz [профессиональный многоголосый, R5]
Аудио 4: русский, DTS, 1509 kbps, 6 ch, 48 kHz [авторский, Андрей Гаврилов]
Аудио 4: русский, DTS, 1509 kbps, 6 ch, 48 kHz [авторский, Алексей Михалёв]
Аудио 5: английский, DTS, 1509 kbps, 6 ch, 48 kHz [оригинал]

Имеются неименованные главы/чаптеры.
«Грэмми» в 1990 году за песню для кино.

Британская академия, 1990 год
Номинации (3):
Лучшая женская роль (Мелани Гриффит)
Лучшая женская роль второго плана (Сигурни Уивер)
Лучший саундтрек

Оскар, 1989 год
Победитель (1):
Лучшая песня — «Let the River Run»

Номинации (5):
Лучший фильм
Лучшая женская роль (Мелани Гриффит)
Лучшая женская роль второго плана (Джоан Кьюсак)
Лучшая женская роль второго плана (Сигурни Уивер)
Лучший режиссер (Майк Николс)

Золотой глобус, 1989 год
Победитель (4):
Лучший фильм (комедия или мюзикл)
Лучшая женская роль (комедия или мюзикл) (Мелани Гриффит)
Лучшая женская роль второго плана (Сигурни Уивер)
Лучшая песня — «Let the River Run»

Номинации (2):
Лучший режиссер (Майк Николс)
Лучший сценарий
Общее
Уникальный идентификатор : 226696372866786001099867840806756263996 (0xAA8C221E8F699B5A985A2D335C97A83C)
Полное имя : D:VideoDelovaja genshina.1988.BDRip.1080p.mkv
Формат : Matroska
Версия формата : Version 4 / Version 2
Размер файла : 20,4 Гбайт
Продолжительность : 1 ч. 53 м.
Общий поток : 25,7 Мбит/сек
Дата кодирования : UTC 2015-01-07 06:50:07
Программа кодирования : mkvmerge v7.5.0 ('Glass Culture') 64bit built on Jan 4 2015 16:48:44
Библиотека кодирования : libebml v1.3.1 + libmatroska v1.4.2
_STATISTICS_WRITING_APP : mkvmerge v7.5.0 ('Glass Culture') 64bit built on Jan 4 2015 16:48:44
_STATISTICS_WRITING_DATE_UTC : 2015-01-07 06:50:07
_STATISTICS_TAGS : BPS DURATION NUMBER_OF_FRAMES NUMBER_OF_BYTES
DURATION : 01:53:31.851000000
NUMBER_OF_FRAMES : 638611
NUMBER_OF_BYTES : 1284885400

Видео
Идентификатор : 1
Формат : AVC
Формат/Информация : Advanced Video Codec
Профиль формата : High@L4.1
Параметр CABAC формата : Да
Параметр ReFrames формата : 4 кадра
Идентификатор кодека : V_MPEG4/ISO/AVC
Продолжительность : 1 ч. 53 м.
Битрейт : 18,9 Мбит/сек
Ширина : 1920 пикселей
Высота : 1036 пикселей
Соотношение сторон : 1,85:1
Режим частоты кадров : Постоянный
Частота кадров : 23,976 кадра/сек
Цветовое пространство : YUV
Субдискретизация насыщенности : 4:2:0
Битовая глубина : 8 бит
Тип развёртки : Прогрессивная
Бит/(Пиксели*Кадры) : 0.397
Размер потока : 15,0 Гбайт (74%)
Заголовок : BDRip -- STarankov
Библиотека кодирования : x264 core 142 r2431 ac76440
Настройки программы : cabac=1 / ref=4 / deblock=1:-1:-1 / analyse=0x3:0x113 / me=umh / subme=10 / psy=1 / psy_rd=1.00:0.15 / mixed_ref=1 / me_range=32 / chroma_me=1 / trellis=2 / 8x8dct=1 / cqm=0 / deadzone=21,11 / fast_pskip=1 / chroma_qp_offset=-3 / threads=6 / lookahead_threads=1 / sliced_threads=0 / nr=0 / decimate=1 / interlaced=0 / bluray_compat=0 / constrained_intra=0 / bframes=8 / b_pyramid=2 / b_adapt=2 / b_bias=0 / direct=3 / weightb=1 / open_gop=0 / weightp=2 / keyint=230 / keyint_min=23 / scenecut=40 / intra_refresh=0 / rc_lookahead=40 / rc=crf / mbtree=0 / crf=21.5 / qcomp=0.60 / qpmin=0 / qpmax=69 / qpstep=4 / vbv_maxrate=40000 / vbv_bufsize=50000 / crf_max=0.0 / nal_hrd=none / filler=0 / ip_ratio=1.40 / pb_ratio=1.30 / aq=1:1.00
Язык : English
Default : Да
Forced : Нет
DURATION : 01:53:31.847000000
NUMBER_OF_FRAMES : 163321
NUMBER_OF_BYTES : 16545241919
_STATISTICS_WRITING_APP : mkvmerge v7.5.0 ('Glass Culture') 64bit built on Jan 4 2015 16:48:44
_STATISTICS_WRITING_DATE_UTC : 2015-01-07 06:50:07
_STATISTICS_TAGS : BPS DURATION NUMBER_OF_FRAMES NUMBER_OF_BYTES

Аудио #1
Идентификатор : 2
Формат : AC-3
Формат/Информация : Audio Coding 3
Расширение режима : CM (complete main)
Параметр Endianness формата : Big
Идентификатор кодека : A_AC3
Продолжительность : 1 ч. 53 м.
Вид битрейта : Постоянный
Битрейт : 192 Кбит/сек
Каналы : 2 канала
Расположение каналов : Front: L R
Частота : 48,0 КГц
Битовая глубина : 16 бит
Метод сжатия : С потерями
Размер потока : 156 Мбайт (1%)
Заголовок : DUB
Язык : Russian
Default : Да
Forced : Нет

Аудио #2
Идентификатор : 3
Формат : DTS
Формат/Информация : Digital Theater Systems
Режим : 16
Параметр Endianness формата : Big
Идентификатор кодека : A_DTS
Продолжительность : 1 ч. 53 м.
Вид битрейта : Постоянный
Битрейт : 1509 Кбит/сек
Каналы : 6 каналов
Расположение каналов : Front: L C R, Side: L R, LFE
Частота : 48,0 КГц
Битовая глубина : 24 бит
Метод сжатия : С потерями
Размер потока : 1,20 Гбайт (6%)
Заголовок : MVO (R5)
Язык : Russian
Default : Нет
Forced : Нет

Аудио #3
Идентификатор : 4
Формат : DTS
Формат/Информация : Digital Theater Systems
Режим : 16
Параметр Endianness формата : Big
Идентификатор кодека : A_DTS
Продолжительность : 1 ч. 53 м.
Вид битрейта : Постоянный
Битрейт : 1509 Кбит/сек
Каналы : 6 каналов
Расположение каналов : Front: L C R, Side: L R, LFE
Частота : 48,0 КГц
Битовая глубина : 24 бит
Метод сжатия : С потерями
Размер потока : 1,20 Гбайт (6%)
Заголовок : AVO (Андрей Гаврилов)
Язык : Russian
Default : Нет
Forced : Нет

Аудио #4
Идентификатор : 5
Формат : DTS
Формат/Информация : Digital Theater Systems
Режим : 16
Параметр Endianness формата : Big
Идентификатор кодека : A_DTS
Продолжительность : 1 ч. 53 м.
Вид битрейта : Постоянный
Битрейт : 1509 Кбит/сек
Каналы : 6 каналов
Расположение каналов : Front: L C R, Side: L R, LFE
Частота : 48,0 КГц
Битовая глубина : 24 бит
Метод сжатия : С потерями
Размер потока : 1,20 Гбайт (6%)
Заголовок : AVO (Алексей Михалёв)
Язык : Russian
Default : Нет
Forced : Нет

Аудио #5
Идентификатор : 6
Формат : DTS
Формат/Информация : Digital Theater Systems
Режим : 16
Параметр Endianness формата : Big
Идентификатор кодека : A_DTS
Продолжительность : 1 ч. 53 м.
Вид битрейта : Постоянный
Битрейт : 1509 Кбит/сек
Каналы : 6 каналов
Расположение каналов : Front: L C R, Side: L R, LFE
Частота : 48,0 КГц
Битовая глубина : 24 бит
Метод сжатия : С потерями
Размер потока : 1,20 Гбайт (6%)
Заголовок : Original
Язык : English
Default : Нет
Forced : Нет

Текст #1
Идентификатор : 7
Формат : UTF-8
Идентификатор кодека : S_TEXT/UTF8
Идентификатор кодека/Информация : UTF-8 Plain Text
Заголовок : русский
Язык : Russian
Default : Нет
Forced : Нет

Текст #2
Идентификатор : 8
Формат : UTF-8
Идентификатор кодека : S_TEXT/UTF8
Идентификатор кодека/Информация : UTF-8 Plain Text
Заголовок : английский (для слабослышащих)
Default : Нет
Forced : Нет

Меню
00:00:00.000 : :Chapter 01
00:02:56.216 : :Chapter 02
00:07:28.321 : :Chapter 03
00:10:30.087 : :Chapter 04
00:16:38.163 : :Chapter 05
00:22:07.617 : :Chapter 06
00:28:22.534 : :Chapter 07
00:31:11.452 : :Chapter 08
00:35:27.875 : :Chapter 09
00:44:45.681 : :Chapter 10
00:48:58.226 : :Chapter 11
00:53:04.306 : :Chapter 12
01:03:35.478 : :Chapter 13
01:12:41.774 : :Chapter 14
01:15:00.245 : :Chapter 15
01:20:16.102 : :Chapter 16
01:25:16.319 : :Chapter 17
01:38:18.225 : :Chapter 18
01:44:16.291 : :Chapter 19
01:50:54.689 : :Chapter 20
01:53:31.595 : :Chapter 21
pb.wtf



Скачать Деловая женщина через торрент http://i66.fastpic.ru/big/2015/0106/bb/187e9e0efd01bbadda4c5229d564a1bb.jpg Скачать фильм Деловая женщина через торрент бесплантно в хорошем качестве Описание: Предприимчивая машинистка Тесс Мак'Гилл мечтает о головокружительной карьере, но на пути к осуществлению мечты стоит серьёзная ... 10 10 2
Info! Золотая раздача, скачанное не засчитывается.
Торрент: Зарегистрирован [2015-01-07 08:49] · скачан: 13 раз
Статус: √ проверено
Размер: 20.35 GB
Как cкачать? Как скачать Деловая женщина через торрент | qTorrent

% Раздел Тема Автор DL S | L
Фильмы [HD 720p, 1080p] (Хороший звук DUB, MVO) [ 8.42 GB ] Деловая женщина / Working Girl [1988 BDRip 720p] DUB MVO 2 x AVO msltel Скачать
1 | 0

28-11-2019 20:33  

Отключить всю рекламу на сайте

    Дорогой пользователь! Огромная просьба, поблагодарите релизера, оцените раздачу и оставьте свои комментарий, если Вы скачали Деловая женщина через торрент бесплатно! Внесите свою лепту в развитие PiratBit!
    Комментировать посты могут только пользователи прошедшие не сложную регистрацию
    Показать сообщения:    

    Деловая женщина через торрент
    Скачать бесплатно Деловая женщина
    Деловая женщина скачать торрент
    Деловая женщина смотреть онлайн
    Cкачать фильм Деловая женщина бесплатно
    Деловая женщина скачать торрент в хорошем качестве
    Деловая женщина смотреть онлайн бесплатно в хорошем качестве


    Вы не можете начинать темы
    Вы не можете отвечать на сообщения
    Вы не можете редактировать свои сообщения
    Вы не можете удалять свои сообщения
    Вы не можете голосовать в опросах
    Вы не можете прикреплять файлы к сообщениям
    Вы можете скачивать файлы