Всегда рабочее зеркало без VPN и Proxy просто перед .vidak.icu напиши любое слово или цифру, Пример http://ilri.vidak.icu

MVO

2 сезон

2 сезон

1

1 сезон

iTunes

2 сезон

13

1 сезон

Deluxe

pack

Рекомендуем

Пиратка

30

ВАЖНО

RePack

MK11

RePack

jed

RePack

fifa19

RePack

RDR2

RePack

NEED FOR SPEED™ PAYBACK

Кинопоиск HD

6 сезон

 Острые козырьки 6 сезон

Все сериалы

все сериалы на PB.wtf

RePack

FAR CRY 5

Anonymous, нам критически не хватает 5601 руб. на оплату серверов и переферии за Апрель, помоги нам пожалуйста, вся надежда только на тебя. В благодарность мы отключим тебе всю рекламу на сайте!

×
  
Magnet ссылка

(Score) Выживут только любовники / Only Lovers Left Alive (by Jozef Van Wissem & SQURL / SQÜRL) - 2014 (2013), FLAC (tracks+.cue), lossless pb.wtf

через торрент pb.wtf

Размер: 273 MB | Добавлен: 7 лет 4 мес. назад | Торрент скачан:39 раз
Смотреть онлайн | Скачать    Ребята, помогите собрать деньги на оплату серверов!!!

07-01-2015 13:14 Скачать торрент  


Jozef Van Wissem & SQÜRL - Only Lovers Left Alive

Страна: США
Жанр: Score
Дата выпуска (Диска): 2014
Дата выпуска (Фильма): 2013
Формат: tracks+.cue
Битрейт: lossless
Продолжительность: 00:48:50
Источник: What.cd
Наличие сканов в содержимом раздачи: Cover

01. Streets Of Detroit - SQÜRL [00:00:35]
02. Funnel Of Love - SQÜRL (featuring Madeline Follin) [00:03:40]
03. Sola Gratia (Part 1) - Jozef Van Wissem & SQÜRL [00:03:24]
04. The Taste Of Blood - Jozef Van Wissem & SQÜRL [00:05:48]
05. Diamond Star - SQÜRL [00:01:14]
06. Please Feel Free To Piss In The Garden - SQÜRL [00:04:20]
07. Spooky Action At A Distance - SQÜRL [00:03:35]
08. Streets Of Tangier - Jozef Van Wissem & SQÜRL [00:01:35]
09. In Templum Dei - Jozef Van Wissem (featuring Zola Jesus) [00:02:56]
10. Sola Gratia (Part 2) - Jozef Van Wissem & SQÜRL [00:05:09]
11. Our Hearts Condemn Us - Jozef Van Wissem [00:04:35]
12. Hal - Yasmine Hamdan [00:04:28]
13. Only Lovers Left Alive - Jozef Van Wissem & SQÜRL [00:03:30]
14. This Is Your Wilderness - Jozef Van Wissem & SQÜRL [00:03:51]

Код:

Exact Audio Copy V1.0 beta 3 from 29. August 2011

EAC extraction logfile from 28. February 2014, 2:16

Jozef van Wissem/Sqürl / Only Lovers Left Alive

Used drive  : PLDS    DVDRWBD DS-6E2SH   Adapter: 0  ID: 0

Read mode               : Secure
Utilize accurate stream : Yes
Defeat audio cache      : Yes
Make use of C2 pointers : No

Read offset correction                      : 6
Overread into Lead-In and Lead-Out          : No
Fill up missing offset samples with silence : Yes
Delete leading and trailing silent blocks   : No
Null samples used in CRC calculations       : Yes
Used interface                              : Native Win32 interface for Win NT & 2000
Gap handling                                : Appended to previous track

Used output format              : User Defined Encoder
Selected bitrate                : 1024 kBit/s
Quality                         : High
Add ID3 tag                     : No
Command line compressor         : C:\Program Files (x86)\Exact Audio Copy\Flac\flac.exe
Additional command line options : -8 -V -T "ARTIST=%artist%" -T "TITLE=%title%" -T "ALBUM=%albumtitle%" -T "DATE=%year%"
-T "TRACKNUMBER=%tracknr%" -T "GENRE=%genre%" -T "PERFORMER=%albuminterpret%" -T "COMPOSER=%composer%" %haslyrics%--tag-from-file=LYRICS="%lyricsfile%"%haslyrics%
-T "ALBUMARTIST=%albumartist%" -T "DISCNUMBER=%cdnumber%" -T "TOTALDISCS=%totalcds%" -T "TOTALTRACKS=%numtracks%" -T "COMMENT=%comment%" %source% -o %dest%

TOC of the extracted CD

     Track |   Start  |  Length  | Start sector | End sector
    ---------------------------------------------------------
        1  |  0:00.00 |  0:35.58 |         0    |     2682
        2  |  0:35.58 |  3:40.41 |      2683    |    19223
        3  |  4:16.24 |  3:24.42 |     19224    |    34565
        4  |  7:40.66 |  5:48.71 |     34566    |    60736
        5  | 13:29.62 |  1:14.44 |     60737    |    66330
        6  | 14:44.31 |  4:20.18 |     66331    |    85848
        7  | 19:04.49 |  3:35.01 |     85849    |   101974
        8  | 22:39.50 |  1:35.73 |    101975    |   109172
        9  | 24:15.48 |  2:56.65 |    109173    |   122437
       10  | 27:12.38 |  5:09.05 |    122438    |   145617
       11  | 32:21.43 |  4:35.39 |    145618    |   166281
       12  | 36:57.07 |  4:28.56 |    166282    |   186437
       13  | 41:25.63 |  3:30.59 |    186438    |   202246
       14  | 44:56.47 |  3:51.17 |    202247    |   219588

Track  1

     Filename C:\EAC rips\Jozef van Wissem Sqürl - Only Lovers Left Alive (2014) [FLAC]\1-01 - Sqürl - Streets of Detroit.wav

     Pre-gap length  0:00:02.00

     Peak level 99.3 %
     Extraction speed 0.6 X
     Track quality 100.0 %
     Test CRC 5BCFAAF8
     Copy CRC 5BCFAAF8
     Track not present in AccurateRip database
     Copy OK

Track  2

     Filename C:\EAC rips\Jozef van Wissem Sqürl - Only Lovers Left Alive (2014) [FLAC]\1-02 - Sqürl - Funnel of Love (feat. Madeline Follin).wav

     Pre-gap length  0:00:00.25

     Peak level 100.0 %
     Extraction speed 1.1 X
     Track quality 100.0 %
     Test CRC BA83857C
     Copy CRC BA83857C
     Track not present in AccurateRip database
     Copy OK

Track  3

     Filename C:\EAC rips\Jozef van Wissem Sqürl - Only Lovers Left Alive (2014) [FLAC]\1-03 - Jozef van Wissem & Sqürl - Sola Gratia (Part 1).wav

     Pre-gap length  0:00:00.25

     Peak level 98.5 %
     Extraction speed 1.2 X
     Track quality 100.0 %
     Test CRC 902929A9
     Copy CRC 902929A9
     Track not present in AccurateRip database
     Copy OK

Track  4

     Filename C:\EAC rips\Jozef van Wissem Sqürl - Only Lovers Left Alive (2014) [FLAC]\1-04 - Jozef van Wissem & Sqürl - The Taste of Blood.wav

     Peak level 100.0 %
     Extraction speed 1.3 X
     Track quality 99.9 %
     Test CRC DC5B2371
     Copy CRC DC5B2371
     Track not present in AccurateRip database
     Copy OK

Track  5

     Filename C:\EAC rips\Jozef van Wissem Sqürl - Only Lovers Left Alive (2014) [FLAC]\1-05 - Sqürl - Diamond Star.wav

     Pre-gap length  0:00:00.25

     Peak level 99.1 %
     Extraction speed 1.1 X
     Track quality 100.0 %
     Test CRC D9DDC78E
     Copy CRC D9DDC78E
     Track not present in AccurateRip database
     Copy OK

Track  6

     Filename C:\EAC rips\Jozef van Wissem Sqürl - Only Lovers Left Alive (2014) [FLAC]\1-06 - Sqürl - Please Feel Free to Piss in the Garden.wav

     Pre-gap length  0:00:00.25

     Peak level 100.0 %
     Extraction speed 1.4 X
     Track quality 99.9 %
     Test CRC 5AE2B423
     Copy CRC 5AE2B423
     Track not present in AccurateRip database
     Copy OK

Track  7

     Filename C:\EAC rips\Jozef van Wissem Sqürl - Only Lovers Left Alive (2014) [FLAC]\1-07 - Sqürl - Spooky Action at a Distance.wav

     Pre-gap length  0:00:00.25

     Peak level 100.0 %
     Extraction speed 1.6 X
     Track quality 100.0 %
     Test CRC 61BD6629
     Copy CRC 61BD6629
     Track not present in AccurateRip database
     Copy OK

Track  8

     Filename C:\EAC rips\Jozef van Wissem Sqürl - Only Lovers Left Alive (2014) [FLAC]\1-08 - Jozef van Wissem & Sqürl - Streets of Tangier.wav

     Pre-gap length  0:00:00.70

     Peak level 100.0 %
     Extraction speed 1.4 X
     Track quality 100.0 %
     Test CRC 1F1982DA
     Copy CRC 1F1982DA
     Track not present in AccurateRip database
     Copy OK

Track  9

     Filename C:\EAC rips\Jozef van Wissem Sqürl - Only Lovers Left Alive (2014) [FLAC]\1-09 - Jozef van Wissem - In Templum Dei (feat. Zola Jesus).wav

     Pre-gap length  0:00:00.50

     Peak level 99.0 %
     Extraction speed 1.6 X
     Track quality 100.0 %
     Test CRC 5EAFFCA6
     Copy CRC 5EAFFCA6
     Track not present in AccurateRip database
     Copy OK

Track 10

     Filename C:\EAC rips\Jozef van Wissem Sqürl - Only Lovers Left Alive (2014) [FLAC]\1-10 - Jozef van Wissem & Sqürl - Sola Gratia (Part 2).wav

     Pre-gap length  0:00:00.25

     Peak level 100.0 %
     Extraction speed 1.7 X
     Track quality 99.9 %
     Test CRC FE77BD55
     Copy CRC FE77BD55
     Track not present in AccurateRip database
     Copy OK

Track 11

     Filename C:\EAC rips\Jozef van Wissem Sqürl - Only Lovers Left Alive (2014) [FLAC]\1-11 - Jozef van Wissem - Our Hearts Condemn Us.wav

     Pre-gap length  0:00:00.25

     Peak level 99.8 %
     Extraction speed 1.7 X
     Track quality 99.9 %
     Test CRC 074B453F
     Copy CRC 074B453F
     Track not present in AccurateRip database
     Copy OK

Track 12

     Filename C:\EAC rips\Jozef van Wissem Sqürl - Only Lovers Left Alive (2014) [FLAC]\1-12 - Yasmine Hamdan - Hal.wav

     Pre-gap length  0:00:00.50

     Peak level 100.0 %
     Extraction speed 2.0 X
     Track quality 100.0 %
     Test CRC A91411A2
     Copy CRC A91411A2
     Track not present in AccurateRip database
     Copy OK

Track 13

     Filename C:\EAC rips\Jozef van Wissem Sqürl - Only Lovers Left Alive (2014) [FLAC]\1-13 - Jozef van Wissem & Sqürl - Only Lovers Left Alive.wav

     Peak level 100.0 %
     Extraction speed 1.8 X
     Track quality 99.9 %
     Test CRC A774CF78
     Copy CRC A774CF78
     Track not present in AccurateRip database
     Copy OK

Track 14

     Filename C:\EAC rips\Jozef van Wissem Sqürl - Only Lovers Left Alive (2014) [FLAC]\1-14 - Jozef van Wissem & Sqürl - This Is Your Wilderness.wav

     Peak level 100.0 %
     Extraction speed 2.1 X
     Track quality 100.0 %
     Test CRC C23F1F64
     Copy CRC C23F1F64
     Track not present in AccurateRip database
     Copy OK

None of the tracks are present in the AccurateRip database

No errors occurred

End of status report

---- CUETools DB Plugin V2.1.3

[CTDB TOCID: O09W9H8dtL5ud0Ijt7Fs4La4sFI-] disk not present in database, Submit result: database access error: Er is een time-out opgetreden voor de bewerking

==== Log checksum D84D7549B1B7CD6F1A5F86DFE1D3CAB4A60AB6E486990EAFB4F9B084E11A024D ====

Код:

REM GENRE Soundtrack
REM DATE 2014
REM DISCID CA0B6F0E
REM COMMENT "ExactAudioCopy v1.0b3"
CATALOG 0666017270524
PERFORMER "Jozef Van Wissem & SQÜRL"
TITLE "Only Lovers Left Alive"
FILE "01 - SQURL - Streets of Detroit.wav" WAVE
  TRACK 01 AUDIO
    TITLE "Streets of Detroit"
    PERFORMER "SQÜRL"
    ISRC GBMUA1400001
    INDEX 01 00:00:00
  TRACK 02 AUDIO
    TITLE "Funnel of Love (feat. Madeline Follin)"
    PERFORMER "SQÜRL"
    ISRC GBMUA1400002
    INDEX 00 00:35:33
FILE "02 - SQURL - Funnel of Love (feat. Madeline Follin).wav" WAVE
    INDEX 01 00:00:00
  TRACK 03 AUDIO
    TITLE "Sola Gratia (Part 1)"
    PERFORMER "Jozef Van Wissem & SQÜRL"
    ISRC GBMUA1400003
    INDEX 00 03:40:16
FILE "03 - Jozef Van Wissem & SQURL - Sola Gratia (Part 1).wav" WAVE
    INDEX 01 00:00:00
FILE "04 - Jozef Van Wissem & SQURL - The Taste of Blood.wav" WAVE
  TRACK 04 AUDIO
    TITLE "The Taste of Blood"
    PERFORMER "Jozef Van Wissem & SQÜRL"
    ISRC GBMUA1400004
    INDEX 01 00:00:00
  TRACK 05 AUDIO
    TITLE "Diamond Star"
    PERFORMER "SQÜRL"
    ISRC GBMUA1400005
    INDEX 00 05:48:46
FILE "05 - SQURL - Diamond Star.wav" WAVE
    INDEX 01 00:00:00
  TRACK 06 AUDIO
    TITLE "Please Feel Free to Piss in the Garden"
    PERFORMER "SQÜRL"
    ISRC GBMUA1400006
    INDEX 00 01:14:19
FILE "06 - SQURL - Please Feel Free to Piss in the Garden.wav" WAVE
    INDEX 01 00:00:00
  TRACK 07 AUDIO
    TITLE "Spooky Action at a Distance"
    PERFORMER "SQÜRL"
    ISRC GBMUA1400007
    INDEX 00 04:19:68
FILE "07 - SQURL - Spooky Action at a Distance.wav" WAVE
    INDEX 01 00:00:00
  TRACK 08 AUDIO
    TITLE "Streets of Tangier"
    PERFORMER "Jozef Van Wissem & SQÜRL"
    ISRC GBMUA1400008
    INDEX 00 03:34:06
FILE "08 - Jozef Van Wissem & SQURL - Streets of Tangier.wav" WAVE
    INDEX 01 00:00:00
  TRACK 09 AUDIO
    TITLE "In Templum Dei (feat. Zola Jesus)"
    PERFORMER "Jozef Van Wissem"
    ISRC GBMUA1400009
    INDEX 00 01:35:23
FILE "09 - Jozef Van Wissem - In Templum Dei (feat. Zola Jesus).wav" WAVE
    INDEX 01 00:00:00
  TRACK 10 AUDIO
    TITLE "Sola Gratia (Part 2)"
    PERFORMER "Jozef Van Wissem & SQÜRL"
    ISRC GBMUA1400010
    INDEX 00 02:56:40
FILE "10 - Jozef Van Wissem & SQURL - Sola Gratia (Part 2).wav" WAVE
    INDEX 01 00:00:00
  TRACK 11 AUDIO
    TITLE "Our Hearts Condemn Us"
    PERFORMER "Jozef Van Wissem"
    ISRC GBMUA1400011
    INDEX 00 05:08:55
FILE "11 - Jozef Van Wissem - Our Hearts Condemn Us.wav" WAVE
    INDEX 01 00:00:00
  TRACK 12 AUDIO
    TITLE "Hal"
    PERFORMER "Yasmine Hamdan"
    ISRC FR13Z1300154
    INDEX 00 04:34:64
FILE "12 - Yasmine Hamdan - Hal.wav" WAVE
    INDEX 01 00:00:00
FILE "13 - Jozef Van Wissem & SQURL - Only Lovers Left Alive.wav" WAVE
  TRACK 13 AUDIO
    TITLE "Only Lovers Left Alive"
    PERFORMER "Jozef Van Wissem & SQÜRL"
    ISRC GBMUA1400012
    INDEX 01 00:00:00
FILE "14 - Jozef Van Wissem & SQURL - This Is Your Wilderness.wav" WAVE
  TRACK 14 AUDIO
    TITLE "This Is Your Wilderness"
    PERFORMER "Jozef Van Wissem & SQÜRL"
    ISRC GBMUA1400013
    INDEX 01 00:00:00

Фильм можно найти здесь:
Выживут только любовники / Only Lovers Left Alive
pb.wtf



Скачать через торрент http://i58.fastpic.ru/big/2014/0309/b2/b1c28e2c319c39a481a7d2f7380d78b2.jpg Скачать, смотреть онлайн бесплантно в хорошем качестве Треклист Streets Of Detroit - SQÜRL [00:00:35] Funnel Of Love - SQÜRL (featuring Madeline Follin) [00:03:40] Sola Gratia (Part ... 5 10 1
Торрент: Зарегистрирован [2015-01-07 13:19] · скачан: 39 раз
Статус: √ проверено
Размер: 273 MB
Как cкачать? Как скачать через торрент | UTorrent

% Раздел Тема Автор DL S | L
Classic Rock & Hard Rock (lossless) [ 2.68 GB ] EVANESCENCE Дискография - 1998-2007 FLAC lossless ser_1985 Скачать
1 | 0
Eurodance, Technopop, Disco (lossless) [ 1.86 GB ] Dr. Alban Студийные альбомы - 5CD [FLAC lossless] tauras Скачать
1 | 0
Action FPS (1st Person) [ 8.89 GB ] Star Wars: The Force Unleashed - Ultimate Sith Edition [Lossless Repack RU/EN] от Druid =Чувак= Скачать
1 | 0
Архив (Alternative, Punk, Independent) [ 1.74 GB ] Breaking Benjamin - Дискография - 2001-2009 FLAC lossless King_IS_Back Скачать
1 | 0
Гоночные симуляторы [ 3.18 GB ] Дальнобойщик​и 3: Золотое Издание [Lossless Repack RU] от R.G. Catalyst roman3310i Скачать
1 | 0
Архив (Многоканальная музыка и собственные оцифровки) [ 405 MB ] Black Sabbath -Heaven & hell - 1980 DTS lossless staryirocker Скачать
1 | 0
RTS (стратегии в реальном времени) [ 4.21 GB ] Command & Conquer 4: Tiberian Twilight [Lossless RePackRUEA] Alex_Zeyn Скачать
1 | 1


Последний раз редактировалось: Messa-fan (2015-01-07 13:19), всего редактировалось 2 раз(а)

28-11-2019 20:33  

Отключить всю рекламу на сайте

    Дорогой пользователь! Огромная просьба, поблагодарите релизера, оцените раздачу и оставьте свои комментарий, если Вы скачали через торрент бесплатно!
    Комментировать посты могут только пользователи прошедшие не сложную регистрацию
    Показать сообщения:    

    через торрент
    Скачать бесплатно
    скачать торрент
    смотреть онлайн
    Cкачать фильм бесплатно
    скачать торрент в хорошем качестве
    смотреть онлайн бесплатно в хорошем качестве


    Вы не можете начинать темы
    Вы не можете отвечать на сообщения
    Вы не можете редактировать свои сообщения
    Вы не можете удалять свои сообщения
    Вы не можете голосовать в опросах
    Вы не можете прикреплять файлы к сообщениям
    Вы можете скачивать файлы