Ссылка на приватное зеркало нашего сайта всего за 1$. Внимание количество ограничено!!!

2 сезон

iTunes

1 сезон

1

2 сезон

2 сезон

iTunes

1 сезон

RePack

30

Новинка

ВАЖНО

ИГРА 18+

pack

RePack

MK11
pack

Забери бонус

RePack

jed

!!Акция!!

Alien_Rage

RePack

fifa19

RePack

Assassins Creed: Odyssey

RePack

NEED FOR SPEED™ PAYBACK

4 сезон

9 сезон

Бесстыжие 9 сезон

Все сериалы

все сериалы на PB.wtf

RePack

FAR CRY 5
  

Discovery. Легендарный автомобиль / Legendary Motorcar / Серии 1-13 из(?)[2014 г., Документальный, автомобили, HDTVRip, Профессиональный одноголосый] pb.wtf

Discovery. Легендарный автомобиль через торрент pb.wtf

Размер: 3.33 GB | Добавлен: 5 лет 10 мес. назад | Торрент скачан:62 раза
Скачать  

07-01-2015 14:59 Discovery. Легендарный автомобиль Скачать торрент  

Discovery. Легендарный автомобиль / Legendary Motorcar
Год выпуска: 2014
Страна: США, Discovery
Жанр: Документальный, автомобили
Продолжительность: ~ 00:22:00
Перевод: Профессиональный одноголосый

Описание: Питер покупает старые убитые легендарные автомобили, чтобы их потом отремонтировать и продать

Качество: HDTVRip
Формат: AVI
Видео кодек: XviD
Аудио кодек: AC3
Видео: 720x400 (16:9), 30.000 fps, 1 519 Kbps (0.176 bit/pixel)
Аудио#1: 48.0 KHz, 2 ch, 192 Kbps, CBR
Релиз от:
Добавлена 13 серия
1. Packard из сарая
Питер узнает о Packard 1937 года, ржавеющем в гараже в паре часов езды от мастерской. Если хозяин согласится, это может стать отличным приобретением.

2. Конкурс Shelby на трассе Уоткинс-Глен
Лучший клиент Питера пригоняет Boss 429 для участия в конкурсе Американского клуба владельцев Shelby.

3. Aston Martin из Оклахомы
Питер узнает про очень редкий гоночный Aston Martin в Оклахоме. Он сразу же летит туда, но на месте выясняется, что с этим автомобилем не все так просто.

4. По-взрослому
Давний клиент приходит к Питу, чтобы предложить ему новую сделку. Но речь не о простом ремонте.

5. T-Bird 1956 с доплатой
Питер находит потенциального покупателя для T-bird. Все идет по плану, пока клиент не начинает выторговывать дополнительные опции.

6. Корветы на благотворительные цели и слепой механик
Крупная благотворительная организация обращается в "Легендарный автомобиль". Они ищут две машины для корпоративного мероприятия, и Пит пригоняет им потрясающий корвет.
7.Полный круг для Boss 302
8.Гонка не для дураков
9. Как продать Cadillac
10. Автомобиль Джессики
11.Выгодные сделки и чистые полы
12.На помощь брату
13.Воскрешение легенды
Внимание! Раздача ведётся путём добавления новых серий; при каждом добавлении создfётся новый торрент. Чтобы начать докачку новой серии, пользователям необходимо сделать следующее: (1) остановить скачивание, (2) удалить старый торрент у себя из клиента (старые серии удалять не надо), (3) скачать новый торрент и запустить его у себя в клиенте вместо старого, при этом указать клиенту путь в старую папку куда и должно происходить скачивание новых серий.

Ваш клиент при этом должен произвести хеширование (проверку) старой папки (если не производит сам - помогите ему сделать это), и будет докачивать только те серии которых у вас ещё нет. Старые серии при этом не удаляются, а продолжают раздаваться!

Eсли вы уже удалили старые серии, то предотвратить повторную закачку старых серий можно, отжав галочку в соответсвующих местах при запуске нового торрента.
скриншот   скриншот   скриншот   скриншот   скриншот   скриншот   скриншот  

Общее
Полное имя : I:\Легендарный автомобиль\Легендарный автомобиль GeneralFilm\01 Легендарный автомобиль GeneralFilm.avi
Формат : AVI
Формат/Информация : Audio Video Interleave
Размер файла : 256 Мбайт
Продолжительность : 20 м.
Общий поток : 1723 Кбит/сек
Программа кодирования : VirtualDubMod 1.5.10.3 | www.virtualdub-fr.org || (build 2550/release)
Библиотека кодирования : VirtualDubMod build 2550/release

Видео
Идентификатор : 0
Формат : MPEG-4 Visual
Профиль формата : Advanced Simple@L5
Параметр BVOP формата : 1
Параметр QPel формата : Нет
Параметр GMC формата : Без точки перехода
Параметр матрицы формата : Default (MPEG)
Идентификатор кодека : XVID
Идентификатор кодека/Подсказка : XviD
Продолжительность : 20 м.
Битрейт : 1519 Кбит/сек
Ширина : 720 пикселей
Высота : 400 пикселей
Соотношение сторон : 16:9
Частота кадров : 30,000 кадров/сек
Цветовое пространство : YUV
Субдискретизация насыщенности : 4:2:0
Битовая глубина : 8 бит
Тип развёртки : Прогрессивная
Метод сжатия : С потерями
Бит/(Пиксели*Кадры) : 0.176
Размер потока : 226 Мбайт (88%)
Библиотека кодирования : XviD 1.2.1 (UTC 2008-12-04)

Аудио
Идентификатор : 1
Формат : AC-3
Формат/Информация : Audio Coding 3
Расширение режима : CM (complete main)
Параметр Endianness формата : Big
Идентификатор кодека : 2000
Продолжительность : 20 м.
Вид битрейта : Постоянный
Битрейт : 192 Кбит/сек
Каналы : 2 канала
Расположение каналов : Front: L R
Частота : 48,0 КГц
Битовая глубина : 16 бит
Метод сжатия : С потерями
Размер потока : 28,5 Мбайт (11%)
Выравнивание : Разделение по промежуткам
Продолжительность промежутка : 33 мс. (1,00 видеокадр)
Время предзагрузки промежутка : 500 мс.


Легендарный автомобиль скачать торрент


pb.wtf



Скачать Discovery. Легендарный автомобиль через торрент http://pic.kartinco.top/images/8/lw447.jpg Скачать фильм Discovery. Легендарный автомобиль через торрент бесплантно в хорошем качестве Описание: Питер покупает старые убитые легендарные автомобили, чтобы их потом отремонтировать и ... 10 10 5
Торрент: Зарегистрирован [2015-01-21 15:04] · скачан: 62 раз
Статус: √ проверено
Размер: 3.33 GB
Как cкачать? Как скачать Discovery. Легендарный автомобиль через торрент | qTorrent

28-11-2019 20:33  

Отключить всю рекламу на сайте

    Дорогой пользователь! Огромная просьба, поблагодарите релизера, оцените раздачу и оставьте свои комментарий, если Вы скачали Discovery. Легендарный автомобиль через торрент бесплатно! Внесите свою лепту в развитие PiratBit!
    Комментировать посты могут только пользователи прошедшие не сложную регистрацию
    Показать сообщения:    

    Discovery. Легендарный автомобиль через торрент
    Скачать бесплатно Discovery. Легендарный автомобиль
    Discovery. Легендарный автомобиль скачать торрент
    Discovery. Легендарный автомобиль смотреть онлайн
    Cкачать фильм Discovery. Легендарный автомобиль бесплатно
    Discovery. Легендарный автомобиль скачать торрент в хорошем качестве
    Discovery. Легендарный автомобиль смотреть онлайн бесплатно в хорошем качестве


    Вы не можете начинать темы
    Вы не можете отвечать на сообщения
    Вы не можете редактировать свои сообщения
    Вы не можете удалять свои сообщения
    Вы не можете голосовать в опросах
    Вы не можете прикреплять файлы к сообщениям
    Вы можете скачивать файлы