Ссылка на приватное зеркало нашего сайта всего за 1$. Внимание количество ограничено!!!

2 сезон

iTunes

1 сезон

1

2 сезон

2 сезон

iTunes

1 сезон

RePack

30

Новинка

ВАЖНО

ИГРА 18+

pack

RePack

MK11
pack

Забери бонус

RePack

jed

!!Акция!!

Alien_Rage

RePack

fifa19

RePack

Assassins Creed: Odyssey

RePack

NEED FOR SPEED™ PAYBACK

4 сезон

9 сезон

Бесстыжие 9 сезон

Все сериалы

все сериалы на PB.wtf

RePack

FAR CRY 5
  

Безрассудный / Reckless / Сезон: 1 / Серии: 1-13 из 13 (Джон Грэй, Майкл Аптед, Джошуа Батлер) [2014, Драма, детектив, криминал, HDTVRip] DVO (HamsterStudio) + Original pb.wtf

Безрассудный через торрент pb.wtf

Размер: 4.91 GB | Добавлен: 5 лет 8 мес. назад | Торрент скачан:91 раз
Скачать  

07-01-2015 16:11 Безрассудный Скачать торрент  


Безрассудный / Reckless
Год выпуска: 2014
Страна: США
Жанр: Драма, детектив, криминал
Продолжительность: ~00:43:00
Перевод: Профессиональный двухголосый

Режиссер: Джон Грэй, Джошуа Батлер, Кэтрин Хардвик



В ролях: Анна Вуд, Кэм Жиганде, Jason Davison, Изабель Майерс, Chloe Perrin, Richard Jones, Скотт Пойтресс, Джесси Уорд, Клер Бронсон, Грэй Хоукс

Описание: Джеми Сойер — прекрасный адвокат, защищающая в суде небогатых людей и тех, которых ложно обвинили. Рой Рейдер — неумолимый и не отклоняющийся от своих принципов прокурор, который постоянно настаивает на том, чтобы обвиняемые получили наибольшие сроки заключения. Рой находится в данный момент в разводе и растит 2-их детей. Неудачный опыт семейной жизни превратил его в скрытного человека. На первый взгляд кажется, что между этими двумя людьми нет никаких точек соприкосновения. Однако по воле судьбы Джеми и Рой встречаются, и между ними загорается страстный роман. Поскольку герои работают вместе, они вынуждены держать втайне ото всех свои отношения, и довольно скоро они оказываются впутанными в оглушительный скандал.

Качество: HDTVRip
Формат: AVI
Видео кодек: XviD
Аудио кодек: MP3
Видео: 720x400 (16:9), 23.976 fps, 1 409 Kbps (0.204 bit/pixel)
Аудио#1: 48.0 KHz, 2 ch, 128 Kbps, CBR Русский
Аудио#2: 48.0 KHz, 2 ch, 128 Kbps, CBR Английский
Релиз от:
Озвучка: Иван Потапов и Ева
Перевод: Notabenoid
Работа с видео, монтаж и сведение звука: Роман Мырон
Внимание! Раздача ведётся путём добавления новых серий; при каждом добавлении создfётся новый торрент. Чтобы начать докачку новой серии, пользователям необходимо сделать следующее: (1) остановить скачивание, (2) удалить старый торрент у себя из клиента (старые серии удалять не надо), (3) скачать новый торрент и запустить его у себя в клиенте вместо старого, при этом указать клиенту путь в старую папку куда и должно происходить скачивание новых серий.

Ваш клиент при этом должен произвести хеширование (проверку) старой папки (если не производит сам - помогите ему сделать это), и будет докачивать только те серии которых у вас ещё нет. Старые серии при этом не удаляются, а продолжают раздаваться!

Eсли вы уже удалили старые серии, то предотвратить повторную закачку старых серий можно, отжав галочку в соответсвующих местах при запуске нового торрента.
скриншот   скриншот   скриншот   скриншот   скриншот   скриншот  





Общее
Полное имя : I:\Безрассудный\Безрассудный\Reckless.S01E01.HDTVRip.HamsterStudio.org.avi
Формат : AVI
Формат/Информация : Audio Video Interleave
Размер файла : 522 Мбайт
Продолжительность : 43 м.
Общий поток : 1679 Кбит/сек
Программа кодирования : VirtualDubMod 1.5.10.2 (build 2540/release)
Библиотека кодирования : VirtualDubMod build 2540/release

Видео
Идентификатор : 0
Формат : MPEG-4 Visual
Профиль формата : Advanced Simple@L5
Параметр BVOP формата : 2
Параметр QPel формата : Нет
Параметр GMC формата : Без точки перехода
Параметр матрицы формата : Default (MPEG)
Идентификатор кодека : XVID
Идентификатор кодека/Подсказка : XviD
Продолжительность : 43 м.
Битрейт : 1409 Кбит/сек
Ширина : 720 пикселей
Высота : 400 пикселей
Соотношение сторон : 16:9
Частота кадров : 23,976 кадра/сек
Цветовое пространство : YUV
Субдискретизация насыщенности : 4:2:0
Битовая глубина : 8 бит
Тип развёртки : Прогрессивная
Метод сжатия : С потерями
Бит/(Пиксели*Кадры) : 0.204
Размер потока : 438 Мбайт (84%)
Библиотека кодирования : XviD 1.2.1 (UTC 2008-12-04)

Аудио #1
Идентификатор : 1
Формат : MPEG Audio
Версия формата : Version 1
Профиль формата : Layer 3
Режим : Joint stereo
Расширение режима : MS Stereo
Идентификатор кодека : 55
Идентификатор кодека/Подсказка : MP3
Продолжительность : 43 м.
Вид битрейта : Постоянный
Битрейт : 128 Кбит/сек
Каналы : 2 канала
Частота : 48,0 КГц
Метод сжатия : С потерями
Размер потока : 39,8 Мбайт (8%)
Выравнивание : Соединение по промежуткам
Продолжительность промежутка : 42 мс. (1,00 видеокадр)
Время предзагрузки промежутка : 504 мс.

Аудио #2
Идентификатор : 2
Формат : MPEG Audio
Версия формата : Version 1
Профиль формата : Layer 3
Режим : Joint stereo
Расширение режима : MS Stereo
Идентификатор кодека : 55
Идентификатор кодека/Подсказка : MP3
Продолжительность : 43 м.
Вид битрейта : Постоянный
Битрейт : 128 Кбит/сек
Каналы : 2 канала
Частота : 48,0 КГц
Метод сжатия : С потерями
Размер потока : 39,8 Мбайт (8%)
Выравнивание : Соединение по промежуткам
Продолжительность промежутка : 42 мс. (1,00 видеокадр)
Время предзагрузки промежутка : 504 мс.


Безрассудный скачать торрент


pb.wtf



Скачать Безрассудный через торрент http://pic.kartinco.top/images/8/vrqho.jpg Скачать фильм Безрассудный через торрент бесплантно в хорошем качестве Описание: Джеми Сойер — прекрасный адвокат, защищающая в суде небогатых людей и тех, которых ложно обвинили. Рой Рейдер — неумолимый и не ... 10 10 6
Торрент: Зарегистрирован [2015-03-07 08:24] · скачан: 91 раз
Статус: √ проверено
Размер: 4.91 GB
Как cкачать? Как скачать Безрассудный через торрент | qTorrent

% Раздел Тема Автор DL S | L
Зарубежные сериалы [ 12.98 GB ] Безрассудный / Reckless / Сезон: 1 / Серии: 1-13 из 13 [2014 HDTVRip720p] DVO + Original +Sub Assasinca Скачать
1 | 0


Последний раз редактировалось: Assasinca (2015-03-07 08:24), всего редактировалось 5 раз(а)

28-11-2019 20:33  

Отключить всю рекламу на сайте

01-02-2015 17:10 Безрассудный Скачать торрент  

Добавлены 9-13 серии. Финалpb.wtf



06-08-2018 02:21 Безрассудный Скачать торрент  

дайте скоростиpb.wtf



    Дорогой пользователь! Огромная просьба, поблагодарите релизера, оцените раздачу и оставьте свои комментарий, если Вы скачали Безрассудный через торрент бесплатно! Внесите свою лепту в развитие PiratBit!
    Комментировать посты могут только пользователи прошедшие не сложную регистрацию
    Показать сообщения:    

    Безрассудный через торрент
    Скачать бесплатно Безрассудный
    Безрассудный скачать торрент
    Безрассудный смотреть онлайн
    Cкачать фильм Безрассудный бесплатно
    Безрассудный скачать торрент в хорошем качестве
    Безрассудный смотреть онлайн бесплатно в хорошем качестве


    Вы не можете начинать темы
    Вы не можете отвечать на сообщения
    Вы не можете редактировать свои сообщения
    Вы не можете удалять свои сообщения
    Вы не можете голосовать в опросах
    Вы не можете прикреплять файлы к сообщениям
    Вы можете скачивать файлы