Ссылка на приватное зеркало всего за 1$. Внимание количество ограничено!!!

iTunes

1+1

iTunes

мы

WEB-DL

1

iTunes

Чернобыль

iTunes

Ральф против интернета

Лицензия

ПШазам

Лицензия

Оно 2

Лицензия

30
pack

Вам бонус

ВАЖНО

!!Акция!!

Alien_RageХит недели

RePack

Resident Evil 21

ИГРА 18+

pack

RePack

jed

!!Акция!!

Alien_Rage

RePack

fifa19

RePack

Assassins Creed: Odyssey

RePack

NEED FOR SPEED™ PAYBACK

3 сезон

9 сезон

Бесстыжие 9 сезон

Все сериалы

все сериалы на PB.wtf

RePack

FAR CRY 5
Ребята, катастрофически не хватает 1900р. для оплаты серверов за Октябрь (всвязи с блокировками трафик упал в 3 раза), 1-2р., выручайте.
  

Мертвец / Dead Man (Джим Джармуш ) [1995, фэнтези, драма, вестерн, BDRip 1080p, Профессиональный многоголосый Авторский (одноголосый)] pb.wtf

Мертвец через торрент pb.wtf

Раздают: 1 [ 664 KB/s ]
Размер: 13.88 GB | Добавлен: 4 года 11 мес. назад | Торрент скачан:120 раз
Скачать  

07-01-2015 18:22 Мертвец Скачать торрент  

Мертвец / Dead Man
«No one can survive becoming a legend»


Год выпуска: 1995
Страна: США, Германия, Япония
Жанр: фэнтези, драма, вестерн
Продолжительность: 02:01:06
Перевод: Профессиональный многоголосый, Авторский (одноголосый)
Субтитры: русские (Russian (Гоблин)), русские (Russian, R5, Кармен-Видео), английские (English)
Режиссер: Джим Джармуш
В ролях: Джонни Депп , Гэри Фармер , Криспин Гловер , Лэнс Хенриксен , Майкл Уинкотт , Юджин Бирд , Джон Хёрт , Роберт Митчум , Игги Поп , Гэбриел Бирн , Джаред Харрис , Мили Авитал
Описание::
После смерти родителей молодой счетовод Уильям Блэйк в надежде найти работу приезжает на Дикий Запад, где по злой воле случая за его голову назначается награда в 500 долларов. Раненого в грудь возле сердца, его выхаживает индеец, которого много лет возили по городам Америки и Англии в качестве живого экспоната. Он принял этого юношу в очках за поэта Уильяма Блэйка, чьи стихи запали в сердце «дикаря», и стал его ангелом-хранителем. А опекаемый, лишившись очков, сам вдруг стал стрелять без промаха, увеличивая стоимость своей головы, оставляя за собой след из трупов лиц, охочих до награды, и приближаясь к тому «месту, откуда приходят и куда возвращаются все духи»...

R - Лицам до 17 лет обязательно присутствие взрослого

Один из самых глубоких, неоднозначных и красивых фильмов всех времен.
Качество: BDRip 1080p (исходник Blu-ray)
Контейнер (Расширение): MKV
Видео кодек: AVC
Аудио кодек: AC3
Видео: 1920x1074 (16:9), 12180 Кбит/сек, 23,976 кадр/сек, 0,246 Бит/[Пиксели*Кадры]
Аудио №1: русский / AC3 / 2.0 / 48 kHz / 640 kbps / 16 bit |Авторский, Дмитрий «Гоблин» Пучков|
Аудио №2: русский / AC3 / 2.0 / 48 kHz / 640 kbps / 16 bit |Многолосый закадровый, FDV|
Аудио №3: русский / AC3 / 2.0 / 48 kHz / 640 kbps / 16 bit |Авторский, П.Карцев|
Аудио №4: русский / AC3 / 2.0 / 48 kHz / 640 kbps / 16 bit |Авторский, Ю.Живов|
Аудио №5: русский / AC3 / 2.0 / 48 kHz / 640 kbps / 16 bit |Авторский, В.Яковлев (Самарский)|
Аудио №6: русский / AC3 / 2.0 / 48 kHz / 192 kbps / 16 bit |Многолосый закадровый, R5, Кармен-Видео|
Аудио №7: русский / AC3 / 2.0 / 48 kHz / 192 kbps / 16 bit |Многолосый закадровый, Extrabit|
Аудио №8: английский / AC3 / 2.0 / 48 kHz / 640 kbps / 16 bit
Навигация по главам(Чаптеры): естьАвтор рипа: Сообщество:
  • Актер Гари Фармер также появился в роли «Никто» в фильме Джармуша «Пес-призрак: Путь самурая» (1999).
  • Многие реплики и имена персонажей были позаимствованы из произведений писателя Уильяма Блэйка, например фраза «Some are born to sweet delight and some born to the endless night». Эта же фраза присутствует в песне группы The Doors «End of the Night».
  • Корни синтеза слова и изображения в фильме уходят к поэту Уильяму Блейку который одновременно был поэтом и иллюстратором своих книг.
  • При подготовке к съемкам «Мертвеца» Джармуш провел целые исторические исследования - в фильме настоящие поселения индейцев и индустриальные города выглядели именно так, как и было в те годы.
  • Джим Джармуш долго искал кинопленку с нужными ему оттенками чёрно-белых тонов.
  • Никто на протяжении фильма говорит на нескольких индейских диалектах - Blackfoot, Cree, Makah.
  • Джонни Депп пополнил бюджет проекта своими собственными деньгами, для того чтобы удалось закончить съемки.
  • Часть съемок Джармуш оплачивал из личных средств.
  • Индейская деревня, в которую Никто привозит Блейка, построена специально для съемок, но с полным историческим соответствием.
  • Персонаж Тэл взята из стихотворения «Книга Тэл», за авторством Уильяма Блэйка.
  • Имена двух полицейских, которых убивает герой Джонни Деппа, Ли и Марвин придуманы в честь Ли Марвина.
  • еще 8 фактов
  • Код:

    General
    Unique ID                                : 182971722487163465548894673055183576224 (0x89A7126A18DE76BDA20513845A049CA0)
    Complete name                            : G:\Nolimits-team\RG Nolimits-team 1080p\Mertvec.(1995).BDRip.1080p.[denis100].mkv
    Format                                   : Matroska
    Format version                           : Version 2
    File size                                : 13.9 GiB
    Duration                                 : 2h 1mn
    Overall bit rate                         : 16.4 Mbps
    Movie name                               : Mertvec.(1995).BDRip.1080p.[denis100]
    Encoded date                             : UTC 2014-03-07 09:37:44
    Writing application                      : mkvmerge v5.8.0 ('No Sleep / Pillow') built on Sep  2 2012 15:37:04
    Writing library                          : libebml v1.2.3 + libmatroska v1.3.0

    Video
    ID                                       : 1
    Format                                   : AVC
    Format/Info                              : Advanced Video Codec
    Format profile                           : High@L4.1
    Format settings, CABAC                   : Yes
    Format settings, ReFrames                : 4 frames
    Codec ID                                 : V_MPEG4/ISO/AVC
    Duration                                 : 2h 1mn
    Bit rate                                 : 12.2 Mbps
    Width                                    : 1 920 pixels
    Height                                   : 1 074 pixels
    Display aspect ratio                     : 16:9
    Frame rate                               : 23.976 fps
    Color space                              : YUV
    Chroma subsampling                       : 4:2:0
    Bit depth                                : 8 bits
    Scan type                                : Progressive
    Bits/(Pixel*Frame)                       : 0.246
    Stream size                              : 10.0 GiB (72%)
    Title                                    : Mertvec.(1995).BDRip.1080p.[denis100]
    Writing library                          : x264 core 138 r2358 9e941d1
    Encoding settings                        : cabac=1 / ref=4 / deblock=1:-3:-3 / analyse=0x3:0x133 / me=umh / subme=11 / psy=1 / psy_rd=1.00:0.10 / mixed_ref=1 / me_range=48 / chroma_me=1 / trellis=2 / 8x8dct=1 / cqm=0 / deadzone=21,11 / fast_pskip=0 / chroma_qp_offset=-3 / threads=6 / lookahead_threads=1 / sliced_threads=0 / nr=0 / decimate=1 / interlaced=0 / bluray_compat=0 / constrained_intra=0 / bframes=8 / b_pyramid=2 / b_adapt=2 / b_bias=0 / direct=3 / weightb=1 / open_gop=0 / weightp=2 / keyint=240 / keyint_min=23 / scenecut=40 / intra_refresh=0 / rc=2pass / mbtree=0 / bitrate=12180 / ratetol=1.0 / qcomp=0.60 / qpmin=0 / qpmax=69 / qpstep=4 / cplxblur=20.0 / qblur=0.5 / ip_ratio=1.40 / pb_ratio=1.30 / aq=1:0.90
    Language                                 : English
    Default                                  : Yes
    Forced                                   : No

    Audio #1
    ID                                       : 2
    Format                                   : AC-3
    Format/Info                              : Audio Coding 3
    Mode extension                           : CM (complete main)
    Codec ID                                 : A_AC3
    Duration                                 : 2h 1mn
    Bit rate mode                            : Constant
    Bit rate                                 : 640 Kbps
    Channel(s)                               : 2 channels
    Channel positions                        : Front: L R
    Sampling rate                            : 48.0 KHz
    Bit depth                                : 16 bits
    Compression mode                         : Lossy
    Stream size                              : 554 MiB (4%)
    Title                                    : Авторский, Дмитрий «Гоблин» Пучков
    Language                                 : Russian
    Default                                  : Yes
    Forced                                   : No

    Audio #2
    ID                                       : 3
    Format                                   : AC-3
    Format/Info                              : Audio Coding 3
    Mode extension                           : CM (complete main)
    Codec ID                                 : A_AC3
    Duration                                 : 2h 1mn
    Bit rate mode                            : Constant
    Bit rate                                 : 640 Kbps
    Channel(s)                               : 2 channels
    Channel positions                        : Front: L R
    Sampling rate                            : 48.0 KHz
    Bit depth                                : 16 bits
    Compression mode                         : Lossy
    Stream size                              : 554 MiB (4%)
    Title                                    : Многолосый закадровый, FDV
    Language                                 : Russian
    Default                                  : No
    Forced                                   : No

    Audio #3
    ID                                       : 4
    Format                                   : AC-3
    Format/Info                              : Audio Coding 3
    Mode extension                           : CM (complete main)
    Codec ID                                 : A_AC3
    Duration                                 : 2h 1mn
    Bit rate mode                            : Constant
    Bit rate                                 : 640 Kbps
    Channel(s)                               : 2 channels
    Channel positions                        : Front: L R
    Sampling rate                            : 48.0 KHz
    Bit depth                                : 16 bits
    Compression mode                         : Lossy
    Stream size                              : 554 MiB (4%)
    Title                                    : Авторский, П.Карцев
    Language                                 : Russian
    Default                                  : No
    Forced                                   : No

    Audio #4
    ID                                       : 5
    Format                                   : AC-3
    Format/Info                              : Audio Coding 3
    Mode extension                           : CM (complete main)
    Codec ID                                 : A_AC3
    Duration                                 : 2h 1mn
    Bit rate mode                            : Constant
    Bit rate                                 : 640 Kbps
    Channel(s)                               : 2 channels
    Channel positions                        : Front: L R
    Sampling rate                            : 48.0 KHz
    Bit depth                                : 16 bits
    Compression mode                         : Lossy
    Stream size                              : 554 MiB (4%)
    Title                                    : Авторский, Ю.Живов
    Language                                 : Russian
    Default                                  : No
    Forced                                   : No

    Audio #5
    ID                                       : 6
    Format                                   : AC-3
    Format/Info                              : Audio Coding 3
    Mode extension                           : CM (complete main)
    Codec ID                                 : A_AC3
    Duration                                 : 2h 1mn
    Bit rate mode                            : Constant
    Bit rate                                 : 640 Kbps
    Channel(s)                               : 2 channels
    Channel positions                        : Front: L R
    Sampling rate                            : 48.0 KHz
    Bit depth                                : 16 bits
    Compression mode                         : Lossy
    Stream size                              : 554 MiB (4%)
    Title                                    : Авторский, В.Яковлев (Самарский)
    Language                                 : Russian
    Default                                  : No
    Forced                                   : No

    Audio #6
    ID                                       : 7
    Format                                   : AC-3
    Format/Info                              : Audio Coding 3
    Mode extension                           : CM (complete main)
    Codec ID                                 : A_AC3
    Duration                                 : 2h 1mn
    Bit rate mode                            : Constant
    Bit rate                                 : 192 Kbps
    Channel(s)                               : 2 channels
    Channel positions                        : Front: L R
    Sampling rate                            : 48.0 KHz
    Bit depth                                : 16 bits
    Compression mode                         : Lossy
    Stream size                              : 166 MiB (1%)
    Title                                    : Многолосый закадровый, R5, Кармен-Видео
    Language                                 : Russian
    Default                                  : No
    Forced                                   : No

    Audio #7
    ID                                       : 8
    Format                                   : AC-3
    Format/Info                              : Audio Coding 3
    Mode extension                           : CM (complete main)
    Codec ID                                 : A_AC3
    Duration                                 : 2h 1mn
    Bit rate mode                            : Constant
    Bit rate                                 : 192 Kbps
    Channel(s)                               : 2 channels
    Channel positions                        : Front: L R
    Sampling rate                            : 48.0 KHz
    Bit depth                                : 16 bits
    Compression mode                         : Lossy
    Stream size                              : 166 MiB (1%)
    Title                                    : Многолосый закадровый, Extrabit
    Language                                 : Russian
    Default                                  : No
    Forced                                   : No

    Audio #8
    ID                                       : 9
    Format                                   : AC-3
    Format/Info                              : Audio Coding 3
    Mode extension                           : CM (complete main)
    Codec ID                                 : A_AC3
    Duration                                 : 2h 1mn
    Bit rate mode                            : Constant
    Bit rate                                 : 640 Kbps
    Channel(s)                               : 2 channels
    Channel positions                        : Front: L R
    Sampling rate                            : 48.0 KHz
    Bit depth                                : 16 bits
    Compression mode                         : Lossy
    Stream size                              : 554 MiB (4%)
    Title                                    : English
    Language                                 : English
    Default                                  : No
    Forced                                   : No

    Text #1
    ID                                       : 10
    Format                                   : UTF-8
    Codec ID                                 : S_TEXT/UTF8
    Codec ID/Info                            : UTF-8 Plain Text
    Title                                    : Russian (Гоблин)
    Language                                 : Russian
    Default                                  : No
    Forced                                   : No

    Text #2
    ID                                       : 11
    Format                                   : UTF-8
    Codec ID                                 : S_TEXT/UTF8
    Codec ID/Info                            : UTF-8 Plain Text
    Title                                    : Russian, R5, Кармен-Видео
    Language                                 : Russian
    Default                                  : No
    Forced                                   : No

    Text #3
    ID                                       : 12
    Format                                   : UTF-8
    Codec ID                                 : S_TEXT/UTF8
    Codec ID/Info                            : UTF-8 Plain Text
    Title                                    : English
    Language                                 : English
    Default                                  : No
    Forced                                   : No

    Menu
    00:00:00.000                             : en:00:00:00.000
    00:08:28.174                             : en:00:08:28.174
    00:13:11.749                             : en:00:13:11.749
    00:23:50.387                             : en:00:23:50.387
    00:29:36.733                             : en:00:29:36.733
    00:39:52.807                             : en:00:39:52.807
    00:48:10.095                             : en:00:48:10.095
    00:55:39.836                             : en:00:55:39.836
    01:03:06.407                             : en:01:03:06.407
    01:12:56.371                             : en:01:12:56.371
    01:19:46.781                             : en:01:19:46.781
    01:29:28.362                             : en:01:29:28.362
    01:39:02.561                             : en:01:39:02.561
    01:45:05.132                             : en:01:45:05.132
    01:52:03.675                             : en:01:52:03.675

    pb.wtf



    Скачать Мертвец через торрент http://i65.fastpic.ru/big/2015/0107/db/8a0c5d598b18ecb5be9a9003c303fbdb.png Скачать фильм Мертвец через торрент бесплантно в хорошем качестве Описание::После смерти родителей молодой счетовод Уильям Блэйк в надежде найти работу приезжает на Дикий Запад, где по злой воле случая за ... 10 10 4
    Info! Серебряная раздача, засчитывается только 50% скачанного.
    Торрент: Зарегистрирован [2015-01-07 18:22] · скачан: 120 раз
    Статус: √ проверено
    Размер: 13.88 GB
    Как cкачать? Как скачать Мертвец через торрент | qTorrent

    % Раздел Тема Автор DL S | L
    Ultra HD (UHD: 2K, 4K, 8K) — видео сверхвысокой чёткости [ 67.61 GB ] Пираты Карибского моря: Мертвецы не рассказывают сказки / Pirates of the Caribbean: Dead Men Tell No Tales [2017 UHD BDRemux 2160p] DUB [] + 2xAVO sheker187 Скачать
    1 | 0
    Фильмы [HD 720p, 1080p] (Хороший звук DUB, MVO) [ 7.6 GB ] Мертвец / Dead Man [1995 BDRip 720p by msltel] 4 x MVO 5 x AVO msltel Скачать
    2 | 0
    Фильмы [HD 720p, 1080p] (Хороший звук DUB, MVO) [ 24.47 GB ] Мертвец / Dead Man [1995 BDRip 1080p by msltel] 4 x MVO 5 x AVO msltel Скачать
    1 | 0
    Фильмы с авторской озвучкой [ 2.17 GB ] Пираты Карибского моря: Мертвецы не рассказывают сказки / Pirates of the Caribbean: Dead Men Tell No Tales [2017 BDRip] 2x[AVO] killermax2013 Скачать
    2 | 0
    Фильмы 2006-2008 [ 2.73 GB ] Пираты Карибского моря: Сундук мертвеца / Pirates of the Caribbean: Dead Man's Chest [2006 WEB-DLRip-AVC] Open Matte - ExKinoRay Enigma2010 Скачать
    1 | 0
    Ultra HD (UHD: 2K, 4K, 8K) — видео сверхвысокой чёткости [ 17.75 GB ] Пираты Карибского моря: Мертвецы не рассказывают сказки / Pirates of the Caribbean: Dead Men Tell No Tales [2017 UHD BDRip 2160p] DUB sheker187 Скачать
    3 | 0
    Фильмы 2017 [DVDrip, WEB-DLRip, HDrip] (DUB, MVO) [ 2.18 GB ] Пираты Карибского моря: Мертвецы не рассказывают сказки / Pirates of the Caribbean: Dead Men Tell No Tales [2017 BDRip] - [] Twi7ter Скачать
    7 | 0

    28-11-2019 20:33  

    Отключить всю рекламу на сайте

      Дорогой пользователь! Огромная просьба, поблагодарите релизера, оцените раздачу и оставьте свои комментарий, если Вы скачали Мертвец через торрент бесплатно! Внесите свою лепту в развитие PiratBit!
      Комментировать посты могут только пользователи прошедшие не сложную регистрацию
      Показать сообщения:    

      Мертвец через торрент
      Скачать бесплатно Мертвец
      Мертвец скачать торрент
      Мертвец смотреть онлайн
      Cкачать фильм Мертвец бесплатно
      Мертвец скачать торрент в хорошем качестве
      Мертвец смотреть онлайн бесплатно в хорошем качестве


      Вы не можете начинать темы
      Вы не можете отвечать на сообщения
      Вы не можете редактировать свои сообщения
      Вы не можете удалять свои сообщения
      Вы не можете голосовать в опросах
      Вы не можете прикреплять файлы к сообщениям
      Вы можете скачивать файлы