Всегда рабочее зеркало без VPN и Proxy просто перед .vidak.icu напиши любое слово или цифру, Пример http://30j6.vidak.icu

MVO

MVO

1 сезон

1

1 сезон

iTunes

1 сезон

13

1 сезон

Deluxe

pack

Рекомендуем

Repack

30

ВАЖНО

RePack

MK11

RePack

jed

RePack

fifa19

RePack

RDR2

RePack

NEED FOR SPEED™ PAYBACK

Кинопоиск HD

6 сезон

 Острые козырьки 6 сезон

Все сериалы

все сериалы на PB.wtf

RePack

FAR CRY 5
  
Magnet ссылка

Кровотечение / The Bleeding (Филип Джелэтт) [2011 г., ужасы, триллер, драма, детектив, HDRip, Любительский двухголосый "DeadSno & den904"] pb.wtf

Кровотечение через торрент pb.wtf

Размер: 1.49 GB | Добавлен: 7 лет 7 мес. назад | Торрент скачан:149 раз
Смотреть онлайн Кровотечение | Скачать    Ребята, помогите собрать деньги на оплату серверов!!!

07-01-2015 18:28 Кровотечение Скачать торрент  

Кровотечение / The Bleeding
Год выпуска: 2011
Страна: США / Reno Productions, Safehouse Pictures, Cinergy Pictures
Жанр: ужасы, триллер, драма, детектив
Продолжительность: 01:26:19
Перевод: Любительский двухголосый (DeadSno & den904)

Режиссер: Филип Джелэтт

В ролях: Александра Чандо, Нина Лизандрелло, Патрик Брин, Чарли Хьюсон, Ричард Бекинс, Корт Янг, Бетси Айдем, Хендерсон Вэйд, Гретчен Макгоун

Описание: У каждой семьи — свои секреты. У кого-то они безобидные, а у кого-то — опасные. Именно с такими ужасными тайнами пришлось столкнуться незнакомцу, который искал помощи, так как у него сломался автомобиль. Входя в дом к, на первый взгляд, безобидной семье, он даже не представлял себе, что совсем скоро очень об этом пожалеет…

Качество: HDRip
Формат: AVI
Видео кодек: XviD
Аудио кодек: AC3
Видео: 720x400 (1.80:1), 23.976 fps, XviD build 50 ~2080 kbps avg, 0.30 bit/pixel
Аудио: 48 kHz, AC3 Dolby Digital, 3/2 (L,C,R,l,r) + LFE ch, ~384 kbps

скриншот   скриншот   скриншот   скриншот   скриншот   скриншот   скриншот   скриншот  

Общее
Полное имя : F:\кино\Кровотечение.2011.HDRip.avi
Формат : AVI
Формат/Информация : Audio Video Interleave
Размер файла : 1,49 Гбайт
Продолжительность : 1 ч. 26 м.
Общий поток : 2474 Кбит/сек
Программа кодирования : VirtualDubMod 1.5.10.3 | www.virtualdub-fr.org || (build 2550/release)
Библиотека кодирования : VirtualDubMod build 2550/release

Видео
Идентификатор : 0
Формат : MPEG-4 Visual
Профиль формата : Advanced [email protected]
Параметр BVOP формата : 2
Параметр QPel формата : Нет
Параметр GMC формата : Без точки перехода
Параметр матрицы формата : Default (H.263)
Идентификатор кодека : XVID
Идентификатор кодека/Подсказка : XviD
Продолжительность : 1 ч. 26 м.
Битрейт : 2081 Кбит/сек
Ширина : 720 пикселей
Высота : 400 пикселей
Соотношение сторон : 16:9
Частота кадров : 23,976 кадра/сек
Цветовое пространство : YUV
Субдискретизация насыщенности : 4:2:0
Битовая глубина : 8 бит
Тип развёртки : Прогрессивная
Метод сжатия : С потерями
Бит/(Пиксели*Кадры) : 0.301
Размер потока : 1,25 Гбайт (84%)
Библиотека кодирования : XviD 1.2.1 (UTC 2008-12-04)

Аудио
Идентификатор : 1
Формат : AC-3
Формат/Информация : Audio Coding 3
Расширение режима : CM (complete main)
Параметр Endianness формата : Big
Идентификатор кодека : 2000
Продолжительность : 1 ч. 26 м.
Вид битрейта : Постоянный
Битрейт : 384 Кбит/сек
Каналы : 6 каналов
Расположение каналов : Front: L C R, Side: L R, LFE
Частота : 48,0 КГц
Битовая глубина : 16 бит
Метод сжатия : С потерями
Размер потока : 237 Мбайт (16%)
Выравнивание : Разделение по промежуткам
Продолжительность промежутка : 42 мс. (1,00 видеокадр)
Время предзагрузки промежутка : 500 мс.

pb.wtf



Скачать Кровотечение через торрент https://pic1.kartinco.top/images/81/bej3f.jpg Скачать, смотреть онлайн Кровотечение бесплантно в хорошем качестве Описание: У каждой семьи — свои секреты. У кого-то они безобидные, а у кого-то — опасные. Именно с такими ужасными тайнами пришлось ... 9.6 10 8
Торрент: Зарегистрирован [2015-01-07 18:28] · скачан: 149 раз
Статус: √ проверено
Размер: 1.49 GB
Как cкачать? Как скачать Кровотечение через торрент | UTorrent

% Раздел Тема Автор DL S | L
Фильмы 2011 [ 1.51 GB ] Кровотечение / The Bleeding [2011 HDRip Любительский одноголосый] coc900 Скачать
1 | 0
T Фильмы 2011 [ 3.39 GB ] Кровотечение / Дом Сострадания / The Bleeding / The Bleeding House [2011 BDRip720p] VO [ХиХиДок] GEKADOL Скачать
1 | 0

28-11-2019 20:33  

Отключить вcю реклaмy на сайте

    Дорогой пользователь! Огромная просьба, поблагодарите релизера, оцените раздачу и оставьте свои комментарий, если Вы скачали Кровотечение через торрент бесплатно!
    Комментировать посты могут только пользователи прошедшие не сложную регистрацию
    Показать сообщения:    

    Кровотечение через торрент
    Скачать бесплатно Кровотечение
    Кровотечение скачать торрент
    Кровотечение смотреть онлайн
    Cкачать фильм Кровотечение бесплатно
    Кровотечение скачать торрент в хорошем качестве
    Кровотечение смотреть онлайн бесплатно в хорошем качестве


    Вы не можете начинать темы
    Вы не можете отвечать на сообщения
    Вы не можете редактировать свои сообщения
    Вы не можете удалять свои сообщения
    Вы не можете голосовать в опросах
    Вы не можете прикреплять файлы к сообщениям
    Вы можете скачивать файлы