2 сезон

iTunes

MVO

1

2 сезон

iTunes

iTunes

1 сезон

RePack

30

Новинка

ВАЖНО

ИГРА 18+

pack

RePack

MK11
pack

Легкие деньги

RePack

jed

RePack

fifa19

RePack

RDR2

RePack

NEED FOR SPEED™ PAYBACK

4 сезон

9 сезон

Бесстыжие 9 сезон

Все сериалы

все сериалы на PB.wtf

RePack

FAR CRY 5

Anonymous, доброй ночи, мы не успеваем собрать деньги на оплату серверов за декабрь и январь, помогите нам пожалуйста в это трудное время. В качестве благодарности мы отключим Вам всю рекламу на сайте (укажите свой ник в строку Ваше имя)!

×
  
Magnet ссылка

Поиск / The Retrieval (Chris Eska ) [2013, драма, вестерн, история, WEB-DLRip, Любительский (одноголосый)] pb.wtf

Поиск через торрент pb.wtf

Размер: 1.36 GB | Добавлен: 6 лет назад | Торрент скачан:306 раз
Скачать  

07-01-2015 20:41 Поиск Скачать торрент  

Поиск / The Retrieval

Год выпуска: 2013
Страна: США
Жанр: драма, вестерн, история
Продолжительность: 01:34:03
Перевод: Любительский (одноголосый) [R.A.I.M.]
Режиссер: Chris Eska
В ролях: Ashton Sanders (Will), Тишуан Скотт (Nate), Кестон Джон (Marcus), Билл Оберст мл. (Burrell), Кристин Хорн (Rachel), Альфонсо Фриман (Isaac), Raven Ledeatte (Abby), Джонатан Брукс (Royce), Lauren Baker (Free Camp Dancer), Steven Zane Bryant (Gang Member), John Stephen Cares (Gang Member), Р.К. Кроу (Gang Member)
Описание:
Во времена Гражданской войны, охотник за головами отправляет своего человека на поиски беглого раба....
Рейтинг:

MPAA: R - Лицам до 17 лет обязательно присутствие взрослого
Качество: WEB-DLRip
Формат: AVI
Видео кодек: XviD
Аудио кодек:AC3
Видео: XviD, 720x400 (16:9), 1480 kbps, 23,976 fps, 0,214 bpp
Аудио №1: AC3 / 2.0 / 48 kHz / 192 kbps / Русский
Аудио №2: AC3 / 5.1 / 48 kHz / 384 kbps / английский

Код:

General
Complete name                            : D:\Торенты\The.Retrieval.2013.WEB-DLRip.1400mb.avi
Format                                   : AVI
Format/Info                              : Audio Video Interleave
File size                                : 1.36 GiB
Duration                                 : 1h 34mn
Overall bit rate                         : 2 071 Kbps
Writing application                      : VirtualDubModRus 1.5.10.2 (build 2542/release)
Writing library                          : VirtualDubMod build 2542/release

Video
ID                                       : 0
Format                                   : MPEG-4 Visual
Format profile                           : Advanced Simple@L5
Format settings, BVOP                    : 2
Format settings, QPel                    : No
Format settings, GMC                     : No warppoints
Format settings, Matrix                  : Default (H.263)
Muxing mode                              : Packed bitstream
Codec ID                                 : XVID
Codec ID/Hint                            : XviD
Duration                                 : 1h 34mn
Bit rate                                 : 1 481 Kbps
Width                                    : 720 pixels
Height                                   : 400 pixels
Display aspect ratio                     : 16:9
Frame rate                               : 23.976 fps
Color space                              : YUV
Chroma subsampling                       : 4:2:0
Bit depth                                : 8 bits
Scan type                                : Progressive
Compression mode                         : Lossy
Bits/(Pixel*Frame)                       : 0.214
Stream size                              : 996 MiB (72%)
Writing library                          : XviD 1.2.1 (UTC 2008-12-04)

Audio #1
ID                                       : 1
Format                                   : AC-3
Format/Info                              : Audio Coding 3
Mode extension                           : CM (complete main)
Codec ID                                 : 2000
Duration                                 : 1h 34mn
Bit rate mode                            : Constant
Bit rate                                 : 192 Kbps
Channel(s)                               : 2 channels
Channel positions                        : Front: L R
Sampling rate                            : 48.0 KHz
Bit depth                                : 16 bits
Compression mode                         : Lossy
Stream size                              : 129 MiB (9%)
Alignment                                : Split accross interleaves
Interleave, duration                     : 42 ms (1.00 video frame)
Interleave, preload duration             : 500 ms

Audio #2
ID                                       : 2
Format                                   : AC-3
Format/Info                              : Audio Coding 3
Mode extension                           : CM (complete main)
Codec ID                                 : 2000
Duration                                 : 1h 34mn
Bit rate mode                            : Constant
Bit rate                                 : 384 Kbps
Channel(s)                               : 6 channels
Channel positions                        : Front: L C R, Side: L R, LFE
Sampling rate                            : 48.0 KHz
Bit depth                                : 16 bits
Compression mode                         : Lossy
Stream size                              : 258 MiB (19%)
Alignment                                : Split accross interleaves
Interleave, duration                     : 42 ms (1.00 video frame)
Interleave, preload duration             : 500 ms

pb.wtf



Скачать Поиск через торрент http://i66.fastpic.ru/big/2015/0107/6f/3a09526d0bf519bd4b04ed904e9b196f.jpg Скачать фильм Поиск через торрент бесплантно в хорошем качестве Описание: Во времена Гражданской войны, охотник за головами отправляет своего человека на поиски беглого раба....Рейтинг: MPAA: R - Лицам ... 8.6 10 10
Торрент: Зарегистрирован [2015-01-07 20:46] · скачан: 306 раз
Статус: √ проверено
Размер: 1.36 GB
Как cкачать? Как скачать Поиск через торрент | UTorrent

% Раздел Тема Автор DL S | L
T Фильмы (WEB-DL 720p, 1080p) [ 2.5 GB ] Поиск / The Retrieval [2013 история WEB-DL 720p Любительский [ColdFilm] Ворон Скачать
1 | 0

28-11-2019 20:33  

Отключить всю рекламу на сайте


09-01-2015 14:05 Поиск Скачать торрент  

возьму гляну. вестернов давно небылоpb.wtf



    Дорогой пользователь! Огромная просьба, поблагодарите релизера, оцените раздачу и оставьте свои комментарий, если Вы скачали Поиск через торрент бесплатно! Внесите свою лепту в развитие PiratBit!
    Комментировать посты могут только пользователи прошедшие не сложную регистрацию
    Показать сообщения:    

    Поиск через торрент
    Скачать бесплатно Поиск
    Поиск скачать торрент
    Поиск смотреть онлайн
    Cкачать фильм Поиск бесплатно
    Поиск скачать торрент в хорошем качестве
    Поиск смотреть онлайн бесплатно в хорошем качестве


    Вы не можете начинать темы
    Вы не можете отвечать на сообщения
    Вы не можете редактировать свои сообщения
    Вы не можете удалять свои сообщения
    Вы не можете голосовать в опросах
    Вы не можете прикреплять файлы к сообщениям
    Вы можете скачивать файлы