Ссылка на приватное зеркало нашего сайта всего за 1$. Внимание количество ограничено!!!

2 сезон

iTunes

1 сезон

1

iTunes

iTunes

iTunes

1 сезон

RePack

30

ИГРА 18+

pack

ВАЖНО

!!Акция!!

Alien_RageХит недели

RePack

MK11
pack

Забери бонус

RePack

jed

!!Акция!!

Alien_Rage

RePack

fifa19

RePack

Assassins Creed: Odyssey

RePack

NEED FOR SPEED™ PAYBACK

4 сезон

9 сезон

Бесстыжие 9 сезон

Все сериалы

все сериалы на PB.wtf

RePack

FAR CRY 5
  

Любимчики в поисках радуги / La Tropa de Trapo en la selva del arcoiris (Álex Colls ) [2014, мультфильм, WEB-DLRip, Профессиональный многоголосый - Лицензия] pb.wtf

Любимчики в поисках радуги через торрент pb.wtf

Размер: 1.37 GB | Добавлен: 5 лет 9 мес. назад | Торрент скачан:382 раза
Скачать  

07-01-2015 20:42 Любимчики в поисках радуги Скачать торрент  

Любимчики в поисках радуги / La Tropa de Trapo en la selva del arcoiris

Год выпуска: 2014
Страна: Испания
Жанр: мультфильм
Продолжительность: 01:09:02
Перевод: Профессиональный многоголосый [Лицензия]
Режиссер: Álex Colls
Описание:
На одной ферме живут веселые и дружные зверушки: собачка, теленок, свинка, медвежонок, жираф и птичка. Однажды друзья находят в лесу волшебную Радугу, с помощью которой отправляются в веселое и захватывающее путешествие в мир фантазий, где их ждет множество приключений. В пути им будут встречаться разные трудности, но если рядом с тобой настоящие друзья, то ничего не страшно!
Рейтинг:

Качество: WEB-DLRip
Формат: AVI
Видео кодек: XviD
Аудио кодек:AC3
Видео: XviD, 720x400 (16:9), 1924 kbps, 25 fps, 0,267 bpp
Аудио №1: AC3 / 5.1 / 48 kHz / 448 kbps / RUS
Аудио №2: AC3 / 5.1 / 48 kHz / 448 kbps / ENG

Код:

General
Complete name                            : D:\Торенты\Lub1mchiki.2014.P.WEB-DLRip.1400Mb.avi
Format                                   : AVI
Format/Info                              : Audio Video Interleave
File size                                : 1.37 GiB
Duration                                 : 1h 9mn
Overall bit rate                         : 2 835 Kbps
Writing application                      : VirtualDubMod 1.5.10.2 (build 2540/release)
Writing library                          : VirtualDubMod build 2540/release

Video
ID                                       : 0
Format                                   : MPEG-4 Visual
Format profile                           : Advanced Simple@L5
Format settings, BVOP                    : 2
Format settings, QPel                    : No
Format settings, GMC                     : No warppoints
Format settings, Matrix                  : Default (MPEG)
Codec ID                                 : XVID
Codec ID/Hint                            : XviD
Duration                                 : 1h 9mn
Bit rate                                 : 1 925 Kbps
Width                                    : 720 pixels
Height                                   : 400 pixels
Display aspect ratio                     : 16:9
Frame rate                               : 25.000 fps
Color space                              : YUV
Chroma subsampling                       : 4:2:0
Bit depth                                : 8 bits
Scan type                                : Progressive
Compression mode                         : Lossy
Bits/(Pixel*Frame)                       : 0.267
Stream size                              : 950 MiB (68%)
Writing library                          : XviD 1.2.1 (UTC 2008-12-04)

Audio #1
ID                                       : 1
Format                                   : AC-3
Format/Info                              : Audio Coding 3
Mode extension                           : CM (complete main)
Codec ID                                 : 2000
Duration                                 : 1h 9mn
Bit rate mode                            : Constant
Bit rate                                 : 448 Kbps
Channel(s)                               : 6 channels
Channel positions                        : Front: L C R, Side: L R, LFE
Sampling rate                            : 48.0 KHz
Bit depth                                : 16 bits
Compression mode                         : Lossy
Stream size                              : 221 MiB (16%)
Alignment                                : Split accross interleaves
Interleave, duration                     : 40 ms (1.00 video frame)
Interleave, preload duration             : 500 ms

Audio #2
ID                                       : 2
Format                                   : AC-3
Format/Info                              : Audio Coding 3
Mode extension                           : CM (complete main)
Codec ID                                 : 2000
Duration                                 : 1h 9mn
Bit rate mode                            : Constant
Bit rate                                 : 448 Kbps
Channel(s)                               : 6 channels
Channel positions                        : Front: L C R, Side: L R, LFE
Sampling rate                            : 48.0 KHz
Bit depth                                : 16 bits
Compression mode                         : Lossy
Stream size                              : 221 MiB (16%)
Alignment                                : Split accross interleaves
Interleave, duration                     : 40 ms (1.00 video frame)
Interleave, preload duration             : 500 ms

pb.wtf



Скачать Любимчики в поисках радуги через торрент http://i65.fastpic.ru/big/2015/0107/eb/b8fd38d9c13e99ddd55b0d008feb54eb.jpg Скачать фильм Любимчики в поисках радуги через торрент бесплантно в хорошем качестве Описание: На одной ферме живут веселые и дружные зверушки: собачка, теленок, свинка, медвежонок, жираф и птичка. Однажды друзья находят в ... 10 10 17
Торрент: Зарегистрирован [2015-01-07 20:57] · скачан: 382 раз
Статус: √ проверено
Размер: 1.37 GB
Как cкачать? Как скачать Любимчики в поисках радуги через торрент | qTorrent

28-11-2019 20:33  

Отключить всю рекламу на сайте

    Дорогой пользователь! Огромная просьба, поблагодарите релизера, оцените раздачу и оставьте свои комментарий, если Вы скачали Любимчики в поисках радуги через торрент бесплатно! Внесите свою лепту в развитие PiratBit!
    Комментировать посты могут только пользователи прошедшие не сложную регистрацию
    Показать сообщения:    

    Любимчики в поисках радуги через торрент
    Скачать бесплатно Любимчики в поисках радуги
    Любимчики в поисках радуги скачать торрент
    Любимчики в поисках радуги смотреть онлайн
    Cкачать фильм Любимчики в поисках радуги бесплатно
    Любимчики в поисках радуги скачать торрент в хорошем качестве
    Любимчики в поисках радуги смотреть онлайн бесплатно в хорошем качестве


    Вы не можете начинать темы
    Вы не можете отвечать на сообщения
    Вы не можете редактировать свои сообщения
    Вы не можете удалять свои сообщения
    Вы не можете голосовать в опросах
    Вы не можете прикреплять файлы к сообщениям
    Вы можете скачивать файлы