Ссылка на приватное зеркало нашего сайта всего за 1$. Внимание количество ограничено!!!

2 сезон

iTunes

1 сезон

1

iTunes

iTunes

iTunes

1 сезон

RePack

30

ИГРА 18+

pack

ВАЖНО

!!Акция!!

Alien_RageХит недели

RePack

MK11
pack

Забери бонус

RePack

jed

!!Акция!!

Alien_Rage

RePack

fifa19

RePack

Assassins Creed: Odyssey

RePack

NEED FOR SPEED™ PAYBACK

4 сезон

9 сезон

Бесстыжие 9 сезон

Все сериалы

все сериалы на PB.wtf

RePack

FAR CRY 5
  

Следопыт / Pathfinder (Маркус Ниспел)[Unrated] [2007 г., боевик, триллер, драма, BDRip 1080p, ]DUB+MVO+DVO+AVO+SUBs+Original pb.wtf

Следопыт через торрент pb.wtf

Размер: 18.63 GB | Добавлен: 5 лет 9 мес. назад | Торрент скачан:94 раза
Скачать  

08-01-2015 10:48 Следопыт Скачать торрент  

Следопыт / Pathfinder [Unrated]
Год выпуска: 2007
Страна: США
Жанр: боевик, триллер, драма
Продолжительность: 01:47:11
Перевод: Дубляж
Субтитры: Русские (R5, Киномания), украинские (BD CEE), русские (комментарии), английские

Режиссер: Маркус Ниспел



В ролях: Карл Урбан, Мун Бладгуд, Рассел Минс, Клэнси Браун, Джей Таваре, Натаниель Арканд, Ральф Мёллер, Кевин Лоринг, Уэйн Чарльз Бэйкер, Мишель Траш

Описание: Северная Америка. 600 лет до прибытия Колумба. Викинги вторгаются на земли коренных жителей этих мест - индейцев. После столкновения двух племен, мальчик викингов остается один и попадает в лагерь врага.

Его принимают в племя и воспитывают. Через 15 лет юный герой вновь встречается со своим некогда родным народом, но последствия этой встречи оказываются трагичными для приютившего его племени и герой принимает решение поставить точку в кровопролитной войне.

Качество: BDRip 1080p
Формат: MKV
Видео кодек: H.264
Аудио кодек: DTS
Видео: 1920x800 at 23.976 fps, x264@L4.1, crf, ~17927 kbps avg
Аудио#1: Russian: 48 kHz, DTS, 3/2 (L,C,R,l,r) + LFE ch, ~768.00 kbps avg |Дубляж+Sub, DVD R5|
Аудио#2: Russian: 48 kHz, DTS, 3/2 (L,C,R,l,r) + LFE ch, ~768.00 kbps avg |Дубляж+Dvo, DVD R5|
Аудио#3: Russian: 48 kHz, DTS, 3/2 (L,C,R,l,r) ch, ~768.00 kbps avg |Многоголосый закадровый, BD CEE|
Аудио#4: Russian: 48 kHz, AC3, 3/2 (L,C,R,l,r) + LFE ch, ~448.00 kbps avg |Многоголосый закадровый, Киномания|
Аудио#5: Russian: 48 kHz, DTS, 3/2 (L,C,R,l,r) + LFE ch, ~1536.00 kbps avg |Двухголосый закадровый, Гланц и Королева|
Аудио#6: Russian: 48 kHz, DTS, 3/2 (L,C,R,l,r) + LFE ch, ~768.00 kbps avg |Одноголосый закадровый, Немахов|
Аудио#7: Russian: 48 kHz, AC3, 3/2 (L,C,R,l,r) + LFE ch, ~448.00 kbps avg |Одноголосый закадровый, Живов|
Аудио#8: English: 48 kHz, DTS, 3/2 (L,C,R,l,r) + LFE ch, ~1536.00 kbps avg
Релиз от:
В дубляже изначально была переведена только речь индейцев, поэтому в дороге №1 речь викингов переведена субтитрами. За работу с дорогой спасибо MaLLIeHbKе
В дубляже изначально была переведена только речь индейцев, поэтому дорога №2 содержит в себе вставки двухголоски на речь викингов и расширенные фрагменты. За работу с дорогой спасибо MaLLIeHbKе
За чистые голоса для дороги №5 спасибо сайту glanzru
За дорогу номер №7 спасибо doppelganger 999
скриншот   скриншот   скриншот   скриншот   скриншот   скриншот  

Общее
Уникальный идентификатор : 189978966517042779971380350678786378308 (0x8EEC9E37FE4E94CFB40CA26426500A44)
Полное имя : I:\Следопыт\Pathfinder.2007.720p.BluRay.7xRus.Eng.HDCLUB.mkv
Формат : Matroska
Версия формата : Version 4 / Version 2
Размер файла : 18,6 Гбайт
Продолжительность : 1 ч. 47 м.
Общий поток : 24,9 Мбит/сек
Дата кодирования : UTC 2014-12-30 17:11:21
Программа кодирования : mkvmerge v7.4.0 ('Circles') 64bit built on Dec 12 2014 12:19:56
Библиотека кодирования : libebml v1.3.0 + libmatroska v1.4.1
Attachements : cover
DURATION : 01:43:05.512000000
NUMBER_OF_FRAMES : 1427
NUMBER_OF_BYTES : 109732
_STATISTICS_WRITING_APP : mkvmerge v7.4.0 ('Circles') 64bit built on Dec 12 2014 12:19:56
_STATISTICS_WRITING_DATE_UTC : 2014-12-30 17:11:21
_STATISTICS_TAGS : BPS DURATION NUMBER_OF_FRAMES NUMBER_OF_BYTES

Видео
Идентификатор : 1
Формат : AVC
Формат/Информация : Advanced Video Codec
Профиль формата : High@L4.1
Параметр CABAC формата : Да
Параметр ReFrames формата : 5 кадров
Идентификатор кодека : V_MPEG4/ISO/AVC
Продолжительность : 1 ч. 47 м.
Битрейт : 17,5 Мбит/сек
Ширина : 1920 пикселей
Высота : 800 пикселей
Соотношение сторон : 2,40:1
Режим частоты кадров : Постоянный
Частота кадров : 23,976 кадра/сек
Цветовое пространство : YUV
Субдискретизация насыщенности : 4:2:0
Битовая глубина : 8 бит
Тип развёртки : Прогрессивная
Бит/(Пиксели*Кадры) : 0.474
Размер потока : 13,1 Гбайт (70%)
Заголовок : Pathfinder (2007) [Unrated] 1080p BDRip
Библиотека кодирования : x264 core 142 r2431+42 c69a006 tMod [8-bit@all X86]
Настройки программы : cabac=1 / ref=5 / deblock=1:-3:-3 / analyse=0x3:0x113 / me=umh / subme=11 / psy=1 / fade_compensate=0.00 / psy_rd=1.00:0.00 / mixed_ref=1 / me_range=24 / chroma_me=1 / trellis=2 / 8x8dct=1 / cqm=0 / deadzone=21,11 / fast_pskip=1 / chroma_qp_offset=-2 / threads=12 / lookahead_threads=3 / sliced_threads=0 / nr=0 / decimate=1 / interlaced=0 / bluray_compat=0 / constrained_intra=0 / fgo=0 / bframes=12 / b_pyramid=2 / b_adapt=2 / b_bias=0 / direct=1 / weightb=1 / open_gop=0 / weightp=2 / keyint=250 / keyint_min=23 / scenecut=40 / intra_refresh=0 / rc_lookahead=80 / rc=crf / mbtree=0 / crf=16.5000 / qcomp=0.60 / qpmin=10:10:10 / qpmax=51:51:51 / qpstep=4 / vbv_maxrate=62500 / vbv_bufsize=78125 / crf_max=0.0 / nal_hrd=none / filler=0 / ip_ratio=1.40 / pb_ratio=1.30 / aq=1:1.00 / aq-sensitivity=10.00 / aq-factor=1.00:1.00:1.00 / aq2=0 / aq3=0
Язык : English
Default : Да
Forced : Нет

Аудио #1
Идентификатор : 2
Формат : DTS
Формат/Информация : Digital Theater Systems
Режим : 16
Параметр Endianness формата : Big
Идентификатор кодека : A_DTS
Продолжительность : 1 ч. 47 м.
Вид битрейта : Постоянный
Битрейт : 755 Кбит/сек
Каналы : 6 каналов
Расположение каналов : Front: L C R, Side: L R, LFE
Частота : 48,0 КГц
Битовая глубина : 24 бит
Метод сжатия : С потерями
Размер потока : 579 Мбайт (3%)
Заголовок : [DVD R5] Dub+Sub - DTS 5.1 @ 768 kbps
Язык : Russian
Default : Да
Forced : Нет

Аудио #2
Идентификатор : 3
Формат : DTS
Формат/Информация : Digital Theater Systems
Режим : 16
Параметр Endianness формата : Big
Идентификатор кодека : A_DTS
Продолжительность : 1 ч. 47 м.
Вид битрейта : Постоянный
Битрейт : 755 Кбит/сек
Каналы : 6 каналов
Расположение каналов : Front: L C R, Side: L R, LFE
Частота : 48,0 КГц
Битовая глубина : 24 бит
Метод сжатия : С потерями
Размер потока : 579 Мбайт (3%)
Заголовок : [DVD R5] Dub+DVO - DTS 5.1 @ 768 kbps
Язык : Russian
Default : Нет
Forced : Нет

Аудио #3
Идентификатор : 4
Формат : DTS
Формат/Информация : Digital Theater Systems
Режим : 16
Параметр Endianness формата : Big
Идентификатор кодека : A_DTS
Продолжительность : 1 ч. 47 м.
Вид битрейта : Постоянный
Битрейт : 755 Кбит/сек
Каналы : 6 каналов
Расположение каналов : Front: L C R, Side: L R, LFE
Частота : 48,0 КГц
Битовая глубина : 24 бит
Метод сжатия : С потерями
Размер потока : 579 Мбайт (3%)
Заголовок : [BD CEE] MVO - DTS 5.1 @ 768 kbps
Язык : Russian
Default : Нет
Forced : Нет

Аудио #4
Идентификатор : 5
Формат : AC-3
Формат/Информация : Audio Coding 3
Расширение режима : CM (complete main)
Параметр Endianness формата : Big
Идентификатор кодека : A_AC3
Продолжительность : 1 ч. 47 м.
Вид битрейта : Постоянный
Битрейт : 448 Кбит/сек
Каналы : 6 каналов
Расположение каналов : Front: L C R, Side: L R, LFE
Частота : 48,0 КГц
Битовая глубина : 16 бит
Метод сжатия : С потерями
Размер потока : 344 Мбайт (2%)
Заголовок : [Kinomania] MVO - AC3 5.1 @ 448 kbps
Язык : Russian
Default : Нет
Forced : Нет

Аудио #5
Идентификатор : 6
Формат : DTS
Формат/Информация : Digital Theater Systems
Режим : 16
Параметр Endianness формата : Big
Идентификатор кодека : A_DTS
Продолжительность : 1 ч. 47 м.
Вид битрейта : Постоянный
Битрейт : 1510 Кбит/сек
Каналы : 6 каналов
Расположение каналов : Front: L C R, Side: L R, LFE
Частота : 48,0 КГц
Битовая глубина : 24 бит
Метод сжатия : С потерями
Размер потока : 1,13 Гбайт (6%)
Заголовок : [Glanc] DVO - DTS 5.1 @ 1536 kbps
Язык : Russian
Default : Нет
Forced : Нет

Аудио #6
Идентификатор : 7
Формат : DTS
Формат/Информация : Digital Theater Systems
Режим : 16
Параметр Endianness формата : Big
Идентификатор кодека : A_DTS
Продолжительность : 1 ч. 47 м.
Вид битрейта : Постоянный
Битрейт : 755 Кбит/сек
Каналы : 6 каналов
Расположение каналов : Front: L C R, Side: L R, LFE
Частота : 48,0 КГц
Битовая глубина : 24 бит
Метод сжатия : С потерями
Размер потока : 579 Мбайт (3%)
Заголовок : [Nemakhov] Avo - DTS 5.1 @ 768 kbps
Язык : Russian
Default : Нет
Forced : Нет

Аудио #7
Идентификатор : 8
Формат : AC-3
Формат/Информация : Audio Coding 3
Расширение режима : CM (complete main)
Параметр Endianness формата : Big
Идентификатор кодека : A_AC3
Продолжительность : 1 ч. 47 м.
Вид битрейта : Постоянный
Битрейт : 448 Кбит/сек
Каналы : 6 каналов
Расположение каналов : Front: L C R, Side: L R, LFE
Частота : 48,0 КГц
Битовая глубина : 16 бит
Метод сжатия : С потерями
Размер потока : 344 Мбайт (2%)
Заголовок : [Givov] AVO - AC3 5.1 @ 448 kbps
Язык : Russian
Default : Нет
Forced : Нет

Аудио #8
Идентификатор : 9
Формат : DTS
Формат/Информация : Digital Theater Systems
Режим : 16
Параметр Endianness формата : Big
Идентификатор кодека : A_DTS
Продолжительность : 1 ч. 47 м.
Вид битрейта : Постоянный
Битрейт : 1509 Кбит/сек
Каналы : 6 каналов
Расположение каналов : Front: L C R, Side: L R, LFE
Частота : 48,0 КГц
Битовая глубина : 24 бит
Метод сжатия : С потерями
Размер потока : 1,13 Гбайт (6%)
Заголовок : DTS 5.1 @ 1536 kbps
Язык : English
Default : Нет
Forced : Нет

Текст #1
Идентификатор : 10
Формат : UTF-8
Идентификатор кодека : S_TEXT/UTF8
Идентификатор кодека/Информация : UTF-8 Plain Text
Заголовок : [SRT/UTF8] Forced
Язык : Russian
Default : Да
Forced : Нет

Текст #2
Идентификатор : 11
Формат : UTF-8
Идентификатор кодека : S_TEXT/UTF8
Идентификатор кодека/Информация : UTF-8 Plain Text
Заголовок : [SRT/UTF8] Full - R5
Язык : Russian
Default : Нет
Forced : Нет

Текст #3
Идентификатор : 12
Формат : UTF-8
Идентификатор кодека : S_TEXT/UTF8
Идентификатор кодека/Информация : UTF-8 Plain Text
Заголовок : [SRT/UTF8] Commentary
Язык : Russian
Default : Нет
Forced : Нет

Текст #4
Идентификатор : 13
Формат : UTF-8
Идентификатор кодека : S_TEXT/UTF8
Идентификатор кодека/Информация : UTF-8 Plain Text
Заголовок : [SRT/UTF8] Full - Kinomania
Язык : Russian
Default : Нет
Forced : Нет

Текст #5
Идентификатор : 14
Формат : UTF-8
Идентификатор кодека : S_TEXT/UTF8
Идентификатор кодека/Информация : UTF-8 Plain Text
Заголовок : [SRT/UTF8] Forced
Язык : English
Default : Нет
Forced : Нет

Текст #6
Идентификатор : 15
Формат : UTF-8
Идентификатор кодека : S_TEXT/UTF8
Идентификатор кодека/Информация : UTF-8 Plain Text
Заголовок : [SRT/UTF8] Full
Язык : English
Default : Нет
Forced : Нет

Текст #7
Идентификатор : 16
Формат : UTF-8
Идентификатор кодека : S_TEXT/UTF8
Идентификатор кодека/Информация : UTF-8 Plain Text
Заголовок : [SRT/UTF8] Trivia
Язык : English
Default : Нет
Forced : Нет

Текст #8
Идентификатор : 17
Формат : UTF-8
Идентификатор кодека : S_TEXT/UTF8
Идентификатор кодека/Информация : UTF-8 Plain Text
Заголовок : [SRT/UTF8] Full
Язык : Ukrainian
Default : Нет
Forced : Нет

Меню
00:00:00.000 : :Main Titles/Marauders
00:02:06.335 : :The Viking Ship
00:06:09.703 : :Mystery Child
00:10:27.460 : :Tribal Gathering
00:18:16.721 : :Fear in the Forest
00:21:05.473 : :Rampage
00:25:11.844 : :Death by the Sword
00:27:46.456 : :Bring Me His Head!
00:34:34.406 : :Rescued
00:43:24.268 : :Run and You May Live
00:47:37.730 : :Two Wolves
00:55:36.959 : :Sneak Attack
01:00:09.773 : :Massacre
01:02:35.752 : :In the Caves
01:10:17.797 : :Torture
01:14:34.428 : :Secret Plan
01:19:16.210 : :Across the Lake
01:22:06.296 : :Under the Ice
01:24:02.537 : :Mountain Ledge
01:33:31.397 : :I Know Who I Am
01:35:06.492 : :Not One of Yours
01:37:40.229 : :Spirit Prophecy
01:41:31.460 : :Pathfinder
01:42:37.276 : :End Titles


Следопыт скачать торрент


pb.wtf
!Ворон писал(а):

I:\Следопыт\Pathfinder.2007.720p.BluRay.7xRus.Eng.HDCLUB.mkv
это опечатка автора рипа, думаю для Вас это не будет иметь какого то принципиального значения



Скачать Следопыт через торрент http://pic.kartinco.top/images/8/b7o5b.jpg Скачать фильм Следопыт через торрент бесплантно в хорошем качестве Описание: Северная Америка. 600 лет до прибытия Колумба. Викинги вторгаются на земли коренных жителей этих мест - индейцев. После ... 9.9 10 9
Info! Золотая раздача, скачанное не засчитывается.
Торрент: Зарегистрирован [2015-01-08 10:48] · скачан: 94 раз
Статус: √ проверено
Размер: 18.63 GB
Как cкачать? Как скачать Следопыт через торрент | qTorrent



Последний раз редактировалось: Assasinca (2015-01-08 11:15), всего редактировалось 1 раз

28-11-2019 20:33  

Отключить всю рекламу на сайте

08-01-2015 10:50 Следопыт Скачать торрент  

фильм неплохо можно глянутьpb.wtf



08-01-2015 11:00 Следопыт Скачать торрент  

фильм хороший, стоит просмотра!pb.wtf



08-01-2015 11:24 Следопыт Скачать торрент  

Отличный фильм!!!pb.wtf



08-01-2015 11:30 Следопыт Скачать торрент  

I:\Следопыт\Pathfinder.2007.720p.BluRay.7xRus.Eng.HDCLUB.mkv
это опечатка автора рипа, думаю для Вас это не будет иметь какого то принципиального значенияpb.wtf
!Ворон писал(а):

Ну такие опечатки не желательно..Но уже оставим как есть, люди начали качать.



    Дорогой пользователь! Огромная просьба, поблагодарите релизера, оцените раздачу и оставьте свои комментарий, если Вы скачали Следопыт через торрент бесплатно! Внесите свою лепту в развитие PiratBit!
    Комментировать посты могут только пользователи прошедшие не сложную регистрацию
    Показать сообщения:    

    Следопыт через торрент
    Скачать бесплатно Следопыт
    Следопыт скачать торрент
    Следопыт смотреть онлайн
    Cкачать фильм Следопыт бесплатно
    Следопыт скачать торрент в хорошем качестве
    Следопыт смотреть онлайн бесплатно в хорошем качестве


    Вы не можете начинать темы
    Вы не можете отвечать на сообщения
    Вы не можете редактировать свои сообщения
    Вы не можете удалять свои сообщения
    Вы не можете голосовать в опросах
    Вы не можете прикреплять файлы к сообщениям
    Вы можете скачивать файлы