Ссылка на приватное зеркало нашего сайта всего за 1$. Внимание количество ограничено!!!

2 сезон

iTunes

1 сезон

1

2 сезон

2 сезон

iTunes

1 сезон

RePack

30

Ultimate

ВАЖНО

ИГРА 18+

pack

RePack

MK11
pack

Забери бонус

RePack

jed

!!Акция!!

Alien_Rage

RePack

fifa19

RePack

Assassins Creed: Odyssey

RePack

NEED FOR SPEED™ PAYBACK

4 сезон

9 сезон

Бесстыжие 9 сезон

Все сериалы

все сериалы на PB.wtf

RePack

FAR CRY 5
  

Прослушка / The Wire / Сезон: 2 / Серии 1-12 из 12 (Ремастеринг 2014 года)(Джо Чаппелль, Эрнест Р. Дикерсон, Кларк Джонсон) [2003 г., триллер, драма, криминал, детектив,WEB-DLRip 720p ] [AVO] (Ю. Сербин)+MVO (Fox Crime)+Original pb.wtf

Прослушка через торрент pb.wtf

Размер: 24.76 GB | Добавлен: 5 лет 10 мес. назад | Торрент скачан:43 раза
Скачать  

08-01-2015 17:15 Прослушка Скачать торрент  

Прослушка / The Wire (Ремастеринг 2014 года)
Год выпуска: 2003
Страна: США
Жанр: триллер, драма, криминал
Продолжительность: 01:02:00
Перевод: Профессиональный многоголосый, Одноголосый закадровый
Субтитры: English

Режиссер: Тим Ван Паттен, Джо Чаппелль, Эрнест Р. Дикерсон, Кларк Джонсон



В ролях: Доминик Уэст, Идрис Эльба, Вуд Харрис, Лэнс Реддик, Соня Сон, Дирдри Лавджой, Джон Доумен, Уенделл Пирс, Сет Гиллиам, Доменик Ломбардоззи

Описание: Подразделение полицейских в Балтиморе пытается с помощью специальных средств и мероприятий по прослушиванию и скрытой видеосъемке довести до суда расследование преступлений организованных преступных групп, которые занимаются незаконным распространением наркотиков.

Внимание! В сериале присутствуют сцены сексуального характера, эпизоды с употреблением алкоголя и наркотиков, фрагменты с насилием и т.д.
Перевод, равно как и оригинал, содержит огромное количество ненормативной лексики.


Качество: WEB-DLRip 720p
Формат: MKV
Видео кодек: AVC
Аудио кодек: AC3
Видео: 1280x718 at 23.976 fps, ~4000 kbps avg
Аудио#1: Russian: 48 kHz, AC3, 3/2 (L,C,R,l,r) + LFE ch, ~384.00 kbps avg |Одноголосый закадровый, Ю.Сербин|
Аудио#2: Russian: 48 kHz, AC3, 2/0 (L,R) ch, ~192.00 kbps avg |Многоголосый закадровый, Fox Crime|
Аудио#3: English: 48 kHz, AC3, 3/2 (L,C,R,l,r) + LFE ch, ~384.00 kbps avg
Аудио#4: English: 48 kHz, AC3, 2/0 (L,R) ch, ~192.00 kbps avg |Комментарии|
Релиз от: by Pro_Rock_
Ремастеринг 2014 года - теперь в 16:9 и HD! Официальный пресс-релиз.
Перевод Ю.Сербина осуществлен при поддержке пользователей форумов novafilm.tv, rutracker.org и e180.ru.
За дорожки с многоголосым переводом спасибо LevMak. Перевод плохой, к просмотру не рекомендуется.
Сохранены оригинальные чаптеры, комментарии и субтитры с DVD R1.
• Шрамы на лицах актёров Майкла К. Уильямса и Джэми Гектора являются настоящими.
• Лэнс Реддик исполнивший роль Седрика Дэниелса, пробовался на роль Банка Морланда и Бабблса.
• Персонаж Сержанта Джея Лэндсмена базируется на настоящем сержанте Балтиморской Полиции. Сам Джей Лэндсман даже проходил прослушивание на эту роль, но в итоге сыграл Лейтенанта Дэниса Мэлло в третьем сезоне.
• Многие эпизодические персонажи были сыграны настоящими офицерами полиции, политиками и бывшими преступниками.
• «Прослушка» — любимый сериал 44-го президента США Барака Обамы.
скриншот   скриншот  скриншот   скриншот  скриншот   скриншот  скриншот   скриншот  

Общее
Уникальный идентификатор : 183205022605673950472781123082062847598 (0x89D400FF9478A923B1EBAD0AC756DE6E)
Полное имя : I:\Прослушка Twe Wire (2002) [Season 1]\The.Wire.S02.720p.WEB-DL.2xRus.Eng.HDCLUB\The.Wire.S02E01.720p.WEB-DL.2xRus.Eng.HDCLUB.mkv
Формат : Matroska
Версия формата : Version 4 / Version 2
Размер файла : 2,03 Гбайт
Продолжительность : 58 м.
Общий поток : 4966 Кбит/сек
Название фильма : The Wire S02E01 (2003) - Ebb Tide
Дата кодирования : UTC 2015-01-07 18:23:30
Программа кодирования : mkvmerge v7.0.0 ('Where We Going') 32bit built on Jun 9 2014 15:08:34
Библиотека кодирования : libebml v1.3.0 + libmatroska v1.4.1

Видео
Идентификатор : 1
Формат : AVC
Формат/Информация : Advanced Video Codec
Профиль формата : High@L3.1
Параметр CABAC формата : Нет
Параметр ReFrames формата : 2 кадра
Параметр GOP формата : N=1
Идентификатор кодека : V_MPEG4/ISO/AVC
Продолжительность : 58 м.
Битрейт : 3907 Кбит/сек
Ширина : 1280 пикселей
Высота : 718 пикселей
Соотношение сторон : 16:9
Режим частоты кадров : Постоянный
Частота кадров : 23,976 кадра/сек
Цветовое пространство : YUV
Субдискретизация насыщенности : 4:2:0
Битовая глубина : 8 бит
Тип развёртки : Прогрессивная
Бит/(Пиксели*Кадры) : 0.177
Размер потока : 1,60 Гбайт (79%)
Заголовок : Release for HDCLUB
Язык : English
Default : Да
Forced : Нет
Основные цвета : BT.709
Характеристики трансфера : BT.709
Коэффициенты матрицы : BT.709
colour_range : Limited

Аудио #1
Идентификатор : 2
Формат : AC-3
Формат/Информация : Audio Coding 3
Расширение режима : CM (complete main)
Параметр Endianness формата : Big
Идентификатор кодека : A_AC3
Продолжительность : 58 м.
Вид битрейта : Постоянный
Битрейт : 384 Кбит/сек
Каналы : 6 каналов
Расположение каналов : Front: L C R, Side: L R, LFE
Частота : 48,0 КГц
Битовая глубина : 16 бит
Метод сжатия : С потерями
Размер потока : 161 Мбайт (8%)
Заголовок : DD 5.1 @ 384 kbps - Ю.Сербин
Язык : Russian
Default : Да
Forced : Нет

Аудио #2
Идентификатор : 3
Формат : AC-3
Формат/Информация : Audio Coding 3
Расширение режима : CM (complete main)
Параметр Endianness формата : Big
Идентификатор кодека : A_AC3
Продолжительность : 58 м.
Вид битрейта : Постоянный
Битрейт : 192 Кбит/сек
Каналы : 2 канала
Расположение каналов : Front: L R
Частота : 48,0 КГц
Битовая глубина : 16 бит
Метод сжатия : С потерями
Размер потока : 80,5 Мбайт (4%)
Заголовок : DD 2.0 @ 192 kbps - Fox Crime
Язык : Russian
Default : Нет
Forced : Нет

Аудио #3
Идентификатор : 4
Формат : AC-3
Формат/Информация : Audio Coding 3
Расширение режима : CM (complete main)
Параметр Endianness формата : Big
Идентификатор кодека : A_AC3
Продолжительность : 58 м.
Вид битрейта : Постоянный
Битрейт : 384 Кбит/сек
Каналы : 6 каналов
Расположение каналов : Front: L C R, Side: L R, LFE
Частота : 48,0 КГц
Битовая глубина : 16 бит
Метод сжатия : С потерями
Размер потока : 161 Мбайт (8%)
Заголовок : DD 5.1 @ 384 kbps
Язык : English
Default : Нет
Forced : Нет

Текст
Идентификатор : 5
Формат : UTF-8
Идентификатор кодека : S_TEXT/UTF8
Идентификатор кодека/Информация : UTF-8 Plain Text
Язык : English
Default : Нет
Forced : Нет

Меню
00:00:00.000 : en:Some Favor
00:09:33.490 : en:Lost
00:21:06.515 : en:"Ain't Never Gonna Be What It Was"
00:31:09.970 : en:A Decline Matter
00:41:54.846 : en:Self-Preservation
00:52:13.756 : en:Disturbing Discovery


Прослушка скачать торрент


pb.wtf



Скачать Прослушка через торрент http://pic.kartinco.top/images/8/f8iy5.jpg Скачать фильм Прослушка через торрент бесплантно в хорошем качестве Описание: Подразделение полицейских в Балтиморе пытается с помощью специальных средств и мероприятий по прослушиванию и скрытой видеосъемке ... 10 10 6
Info! Золотая раздача, скачанное не засчитывается.
Торрент: Зарегистрирован [2015-01-08 17:15] · скачан: 43 раз
Статус: √ проверено
Размер: 24.76 GB
Как cкачать? Как скачать Прослушка через торрент | qTorrent

28-11-2019 20:33  

Отключить всю рекламу на сайте

12-01-2015 11:28 Прослушка Скачать торрент  

Assasinca, нет новостей по 3-ему сезону?pb.wtf



14-02-2019 07:53 Прослушка Скачать торрент  

Нет раздачи (( pb.wtf



    Дорогой пользователь! Огромная просьба, поблагодарите релизера, оцените раздачу и оставьте свои комментарий, если Вы скачали Прослушка через торрент бесплатно! Внесите свою лепту в развитие PiratBit!
    Комментировать посты могут только пользователи прошедшие не сложную регистрацию
    Показать сообщения:    

    Прослушка через торрент
    Скачать бесплатно Прослушка
    Прослушка скачать торрент
    Прослушка смотреть онлайн
    Cкачать фильм Прослушка бесплатно
    Прослушка скачать торрент в хорошем качестве
    Прослушка смотреть онлайн бесплатно в хорошем качестве


    Вы не можете начинать темы
    Вы не можете отвечать на сообщения
    Вы не можете редактировать свои сообщения
    Вы не можете удалять свои сообщения
    Вы не можете голосовать в опросах
    Вы не можете прикреплять файлы к сообщениям
    Вы можете скачивать файлы