2 сезон

iTunes

1 сезон

1

iTunes

iTunes

iTunes

1 сезон

RePack

30

ИГРА 18+

pack

ВАЖНО

!!Акция!!

Alien_RageХит недели

RePack

MK11
pack

Забери бонус

RePack

jed

!!Акция!!

Alien_Rage

RePack

fifa19

RePack

Assassins Creed: Odyssey

RePack

NEED FOR SPEED™ PAYBACK

4 сезон

9 сезон

Бесстыжие 9 сезон

Все сериалы

все сериалы на PB.wtf

RePack

FAR CRY 5
  

Сюзанн / Suzanne (Кэйтель Куиливье) [2013 г., драма, HDRip, Любительский одноголосый "Lord32x"] pb.wtf

Сюзанн через торрент pb.wtf

Размер: 1.46 GB | Добавлен: 5 лет 9 мес. назад | Торрент скачан:21 раз
Скачать  

08-01-2015 17:33 Сюзанн Скачать торрент  

Сюзанн / Suzanne
Год выпуска: 2013
Страна: Франция / Move Movie, Mars Films, Panache Productions
Жанр: драма
Продолжительность: 01:33:52
Перевод: Любительский одноголосый (Lord32x)

Режиссер: Кэйтель Куиливье

В ролях: Сара Форестье, Франсуа Дамиенс, Адель Энель, Поль Ами, Лола Дуэньяс, Корина Масьеро, Анн Ле Ни, Карим Леклу, Аполлония Луизетти, Фани Занини

Описание: Став матерью в подростковом возрасте, Сюзанна живет вместе с отцом дальнобойщиком и сестрой. Жизнь Сюзанны резко меняется после того, как она влюбляется в Жюльена, жулика, сбивающего её с пути. Затем следуют побег, тюрьма и сумасшедшая любовь, ради которой она отказывается от всего…

Качество: HDRip
Формат: AVI
Видео кодек: XviD
Аудио кодек: AC3
Видео: 720x384 (1.88:1), 24.000 fps, XviD build 50 ~1763 kbps avg, 0.27 bit/pixel
Аудио: 48 kHz, AC3 Dolby Digital, 3/2 (L,C,R,l,r) + LFE ch, ~448 kbps

скриншот   скриншот   скриншот   скриншот   скриншот   скриншот   скриншот   скриншот   скриншот   скриншот  

Общее
Полное имя : F:\кино\Сюзанн.2013.HDRip.avi
Формат : AVI
Формат/Информация : Audio Video Interleave
Размер файла : 1,46 Гбайт
Продолжительность : 1 ч. 33 м.
Общий поток : 2221 Кбит/сек
Программа кодирования : VirtualDubMod 1.5.10.3 | www.virtualdub-fr.org || (build 2550/release)
Библиотека кодирования : VirtualDubMod build 2550/release

Видео
Идентификатор : 0
Формат : MPEG-4 Visual
Профиль формата : Advanced Simple@L5
Параметр BVOP формата : 2
Параметр QPel формата : Нет
Параметр GMC формата : Без точки перехода
Параметр матрицы формата : Default (H.263)
Идентификатор кодека : XVID
Идентификатор кодека/Подсказка : XviD
Продолжительность : 1 ч. 33 м.
Битрейт : 1763 Кбит/сек
Ширина : 720 пикселей
Высота : 384 пикселя
Соотношение сторон : 1,85:1
Частота кадров : 24,000 кадра/сек
Цветовое пространство : YUV
Субдискретизация насыщенности : 4:2:0
Битовая глубина : 8 бит
Тип развёртки : Прогрессивная
Метод сжатия : С потерями
Бит/(Пиксели*Кадры) : 0.266
Размер потока : 1,16 Гбайт (79%)
Библиотека кодирования : XviD 1.2.1 (UTC 2008-12-04)

Аудио
Идентификатор : 1
Формат : AC-3
Формат/Информация : Audio Coding 3
Расширение режима : CM (complete main)
Параметр Endianness формата : Big
Идентификатор кодека : 2000
Продолжительность : 1 ч. 33 м.
Вид битрейта : Постоянный
Битрейт : 448 Кбит/сек
Каналы : 6 каналов
Расположение каналов : Front: L C R, Side: L R, LFE
Частота : 48,0 КГц
Битовая глубина : 16 бит
Метод сжатия : С потерями
Размер потока : 301 Мбайт (20%)
Выравнивание : Разделение по промежуткам
Продолжительность промежутка : 42 мс. (1,00 видеокадр)
Время предзагрузки промежутка : 500 мс.

pb.wtf



Скачать Сюзанн через торрент http://pic.kartinco.top/images/8/jm3lc.jpg Скачать фильм Сюзанн через торрент бесплантно в хорошем качестве Описание: Став матерью в подростковом возрасте, Сюзанна живет вместе с отцом дальнобойщиком и сестрой. Жизнь Сюзанны резко меняется после ... 5.5 10 2
Торрент: Зарегистрирован [2015-01-08 17:33] · скачан: 21 раз
Статус: √ проверено
Размер: 1.46 GB
Как cкачать? Как скачать Сюзанн через торрент | qTorrent

% Раздел Тема Автор DL S | L
T Фильмы (WEB-DL 720p, 1080p) [ 1.85 GB ] Дом на продажу / The Open House [2018 WEBRip 720p] [MVO] WorldSM Скачать
1 | 0

28-11-2019 20:33  

Отключить всю рекламу на сайте

    Дорогой пользователь! Огромная просьба, поблагодарите релизера, оцените раздачу и оставьте свои комментарий, если Вы скачали Сюзанн через торрент бесплатно! Внесите свою лепту в развитие PiratBit!
    Комментировать посты могут только пользователи прошедшие не сложную регистрацию
    Показать сообщения:    

    Сюзанн через торрент
    Скачать бесплатно Сюзанн
    Сюзанн скачать торрент
    Сюзанн смотреть онлайн
    Cкачать фильм Сюзанн бесплатно
    Сюзанн скачать торрент в хорошем качестве
    Сюзанн смотреть онлайн бесплатно в хорошем качестве


    Вы не можете начинать темы
    Вы не можете отвечать на сообщения
    Вы не можете редактировать свои сообщения
    Вы не можете удалять свои сообщения
    Вы не можете голосовать в опросах
    Вы не можете прикреплять файлы к сообщениям
    Вы можете скачивать файлы