Ссылка на приватное зеркало всего за 1$. Внимание количество ограничено!!!

OK

1+1

iTunes

мы

OK

1

WEB-DLRip

Джокер

Пифагор

Ведьмак / The Witcher сериал

Лицензия

ПШазам

ОК

Оно 2

iTunes

30
pack

Вам бонус

ВАЖНО

!!Акция!!

Alien_RageХит недели

RePack

Resident Evil 21

ИГРА 18+

pack

RePack

jed

RePack

fifa19

RePack

Assassins Creed: Odyssey

RePack

NEED FOR SPEED™ PAYBACK

4 сезон

9 сезон

Бесстыжие 9 сезон

Все сериалы

все сериалы на PB.wtf

RePack

FAR CRY 5
  

Охота / Jagten / The Hunt (Томас Винтерберг) [2012, Драма, BDRip 720p] MVO от R.G. PiratFilms pb.wtf

Охота через торрент pb.wtf

Размер: 3.67 GB | Добавлен: 5 лет назад | Торрент скачан:118 раз
Скачать  

09-01-2015 04:14 Охота Скачать торрент  

Охота / Jagten / The Hunt«The lie is spreading»

Информация о фильме

Год выпуска: 2012
Страна: Дания, Швеция
Жанр: Драма
Перевод: Профессиональный (многоголосый закадровый)
Продолжительность: 01:55:28
Режиссер: Томас Винтерберг
В ролях: Мадс Миккельсен, Томас Бо Ларсен, Анника Веддеркопп, Лассе Фогельстрём, Суссе Вольд, Анне Луизе Хассинг, Ларс Ранте, Александра Рапапорт, Себастьян Булл Сарнинг, Стин Орделл Гулдбранд Дженсен, Даниэль Энгструп, Троелс Торсен


Описание фильма:

Учитель живет одинокой жизнью, все время борется за опеку над сыном. Его жизнь постепенно становится лучше, когда он находит любовь и получает хорошие новости от сына, но его новая жизнь вот-вот будет жестоко разрушена невинной ложью.

Информация о файле:

Качество: BDRip 720p | Исходник: Blu-ray Disc (Custom) 1080p | Автор рипа: XLASER
Формат: MKV
Видео кодек: AVC
Аудио кодек: AC3
Видео: 1280x544 (2.35:1), 4100 Кбит/сек, 24 fps
Аудио: AC3, 448 Кбит/сек, 6 каналов, 48 КГц




Код:

Формат                                   : Matroska
Версия формата                           : Version 4 / Version 2
Размер файла                             : 3,67 Гбайт
Продолжительность                        : 1 ч. 55 м.
Общий поток                              : 4550 Кбит/сек
Название фильма                          : The Hunt (2012) | BDRip 720p by XLASER
Дата кодирования                         : UTC 2015-01-09 03:48:53
Программа кодирования                    : mkvmerge v6.8.0 ('Theme for Great Cities') 64bit built on Mar  2 2014 21:34:26
Библиотека кодирования                   : libebml v1.3.0 + libmatroska v1.4.1

Видео
Идентификатор                            : 1
Формат                                   : AVC
Формат/Информация                        : Advanced Video Codec
Профиль формата                          : High@L4.1
Параметр CABAC формата                   : Да
Параметр ReFrames формата                : 8 кадров
Идентификатор кодека                     : V_MPEG4/ISO/AVC
Продолжительность                        : 1 ч. 55 м.
Битрейт                                  : 4100 Кбит/сек
Ширина                                   : 1280 пикселей
Высота                                   : 544 пикселя
Соотношение сторон                       : 2,35:1
Режим частоты кадров                     : Постоянный
Частота кадров                           : 24,000 кадра/сек
Цветовое пространство                    : YUV
Субдискретизация насыщенности            : 4:2:0
Битовая глубина                          : 8 бит
Тип развёртки                            : Прогрессивная
Бит/(Пиксели*Кадры)                      : 0.245
Размер потока                            : 3,24 Гбайт (88%)
Заголовок                                : The Hunt (2012) | BDRip 720p by XLASER
Библиотека кодирования                   : x264 core 130 r2273 b3065e6
Настройки программы                      : cabac=1 / ref=8 / deblock=1:-3:-3 / analyse=0x3:0x113 / me=umh / subme=9 / psy=1 / psy_rd=1.03:0.05 / mixed_ref=1 / me_range=32 / chroma_me=1 / trellis=2 / 8x8dct=1 / cqm=0 / deadzone=21,11 / fast_pskip=0 / chroma_qp_offset=-5 / threads=4 / lookahead_threads=1 / sliced_threads=0 / nr=0 / decimate=1 / interlaced=0 / bluray_compat=0 / constrained_intra=0 / bframes=10 / b_pyramid=2 / b_adapt=2 / b_bias=0 / direct=3 / weightb=1 / open_gop=0 / weightp=1 / keyint=240 / keyint_min=24 / scenecut=40 / intra_refresh=0 / rc_lookahead=60 / rc=2pass / mbtree=1 / bitrate=4100 / ratetol=1.0 / qcomp=0.80 / qpmin=0 / qpmax=69 / qpstep=4 / cplxblur=20.0 / qblur=0.5 / vbv_maxrate=50000 / vbv_bufsize=62500 / nal_hrd=none / ip_ratio=1.30 / aq=1:0.70
Язык                                     : English
Default                                  : Да
Forced                                   : Нет

Аудио
Идентификатор                            : 2
Формат                                   : AC-3
Формат/Информация                        : Audio Coding 3
Расширение режима                        : CM (complete main)
Параметр Endianness формата              : Big
Идентификатор кодека                     : A_AC3
Продолжительность                        : 1 ч. 55 м.
Вид битрейта                             : Постоянный
Битрейт                                  : 448 Кбит/сек
Каналы                                   : 6 каналов
Расположение каналов                     : Front: L C R, Side: L R, LFE
Частота                                  : 48,0 КГц
Битовая глубина                          : 16 бит
Метод сжатия                             : С потерями
Размер потока                            : 370 Мбайт (10%)
Язык                                     : Russian
Default                                  : Да
Forced                                   : Нет



скриншот   скриншот   скриншот   скриншот   скриншот   скриншот  


pb.wtf



Скачать Охота через торрент http://i64.fastpic.ru/big/2015/0109/6b/607924937ec1aea4edfd5ca502a1b06b.png Скачать фильм Охота через торрент бесплантно в хорошем качестве Описание фильма: Учитель живет одинокой жизнью, все время борется за опеку над сыном. Его жизнь постепенно становится лучше, когда он ... 10 10 8
Info! Золотая раздача, скачанное не засчитывается.
Торрент: Зарегистрирован [2015-01-09 04:14] · скачан: 118 раз
Статус: √ проверено
Размер: 3.67 GB
Как cкачать? Как скачать Охота через торрент | qTorrent

28-11-2019 20:33  

Отключить всю рекламу на сайте

09-01-2015 08:24 Охота Скачать торрент  

Чоткое кино, Мэдс тащит. Только после просмотра осадок остаётся какой-то не особо хороший =( Казалось бы, одно нелепо сказанное слово ребёнком и начинается буря безумия и никто даж и не думает о том, чтобы разобраться как разумные люди во всём... охота на ведьм она такая =( Кто не смотрел, обязательно посмотрите.pb.wtf



21-01-2015 11:41 Охота Скачать торрент  

отличный фильм. Мэдс красаваpb.wtf



    Дорогой пользователь! Огромная просьба, поблагодарите релизера, оцените раздачу и оставьте свои комментарий, если Вы скачали Охота через торрент бесплатно! Внесите свою лепту в развитие PiratBit!
    Комментировать посты могут только пользователи прошедшие не сложную регистрацию
    Показать сообщения:    

    Охота через торрент
    Скачать бесплатно Охота
    Охота скачать торрент
    Охота смотреть онлайн
    Cкачать фильм Охота бесплатно
    Охота скачать торрент в хорошем качестве
    Охота смотреть онлайн бесплатно в хорошем качестве


    Вы не можете начинать темы
    Вы не можете отвечать на сообщения
    Вы не можете редактировать свои сообщения
    Вы не можете удалять свои сообщения
    Вы не можете голосовать в опросах
    Вы не можете прикреплять файлы к сообщениям
    Вы можете скачивать файлы