Ссылка на приватное зеркало нашего сайта всего за 1$. Внимание количество ограничено!!!

2 сезон

iTunes

1 сезон

1

2 сезон

2 сезон

iTunes

1 сезон

RePack

30

Ultimate

ВАЖНО

ИГРА 18+

pack

RePack

MK11
pack

Забери бонус

RePack

jed

!!Акция!!

Alien_Rage

RePack

fifa19

RePack

Assassins Creed: Odyssey

RePack

NEED FOR SPEED™ PAYBACK

4 сезон

9 сезон

Бесстыжие 9 сезон

Все сериалы

все сериалы на PB.wtf

RePack

FAR CRY 5
  

Библиотекари / The Librarians / Сезон: 1/ Серия 1-10 (10) (Дин Девлин, Джонатан Фрейкс) [2014 г., приключения, фантастика, мистика, WEB-DLRip 720p,] MVO(Rus,Ukr)(BaibaKo)+ Original pb.wtf

Библиотекари через торрент pb.wtf

Размер: 16.04 GB | Добавлен: 5 лет 9 мес. назад | Торрент скачан:33 раза
Скачать  

09-01-2015 10:04 Библиотекари Скачать торрент  

Библиотекари / The Librarians
Год выпуска: 2014
Страна: США
Жанр: приключения, фантастика, мистика
Продолжительность: 00:57:46
Перевод: Профессиональный многоголосый

Режиссер: Дин Девлин, Джонатан Фрейкс



В ролях: Ноа Уайли, Джон Ларрокетт, Ребекка Ромин, Кристиан Кейн, Джон Ким, Линди Бут, Лесли-Энн Брандт, Джейн Куртин, Боб Ньюхарт, Бен Эндрюс

Описание: Сериал снят по мотивам серии фильмов «Библиотекарь», повествующей о Флинне Карсене. Его миссия заключается в том, чтобы охранять магические артефакты в старинной библиотеке. Он вербует четырёх обычных людей, собирая команду по борьбе с тёмной магией и древними заговорами. Под руководством Флинна они научатся самозащите и боевым приемам, чтобы отправиться на поиски загадочных артефактов и спасти их от злодеев, желающих захватить мир.

Качество: WEB-DLRip 720p
Формат: MKV
Видео кодек: AVC
Аудио кодек: AC3
Видео: 1280x716 (16:9), 23.976 fps, 3 870 Kbps (0.176 bit/pixel)
Аудио#1: 48.0 KHz, 6 ch, 384 Kbps, CBR (Russian)
Аудио#2: 48.0 KHz, 6 ch, 384 Kbps, CBR (Ukrainian)
Аудио#3: 48.0 KHz, 6 ch, 384 Kbps, CBR (English)
10-я серия (финал сезона)
Релиз от:
Перевод: Янина Галицкая
Озвучка: Светлана Доманова, Ольга Мотрич, Юлия Котурбаш, Дмитрий Нежельский, Акмал Гурезов и Олекса Мельник
1.Библиотекари и корона короля Артура
2.Библиотекари и меч в камне
3.Библиотекари и рога Дилеммы
4.Библиотекари и полуночный рейд Санты
5.Библиотекари и яблоко раздора
6.Библиотекари и легенды судьбы
7.Библиотекари и правило троицы
8.Библиотекари и сердце тьмы
9.Библиотекари и город света
10.Библиотекари и ткацкий станок судьбы (финал сезона)
Когда раздача ведётся путём добавления новых серий, при каждом добавлении создётся новый торрент. Чтобы начать докачку новой серии, пользователям необходимо сделать следующее:
(1) остановить скачивание,
(2) удалить старый торрент у себя из клиента (старые серии удалять не надо),
(3) скачать новый торрент и запустить его у себя в клиенте вместо старого, при этом указать клиенту путь в старую папку, куда и должно происходить скачивание новых серий.
Ваш клиент при этом должен произвести хеширование (проверку) старой папки (если не производит сам - помогите ему сделать это), и будет докачивать только те серии, которых у вас ещё нет. Старые серии при этом не удаляются, а продолжают раздаваться!
Eсли вы уже удалили старые серии, то предотвратить повторную закачку старых серий можно, отжав галочку в соответсвующих местах при запуске нового торрента. По возможности, желательно не удалять старые серии как можно дольше, чтобы релизёр не столько продолжал раздавать старые серии, а смог сконцентрироваться на новых.
скриншот   скриншот   скриншот   скриншот   скриншот   скриншот   скриншот  

Общее
Уникальный идентификатор : 217363280520067269088332472249156976287 (0xA386A523B9D4D4E0BA95D648A02D3E9F)
Полное имя : H:\Библиотекари и корона короля Артура\Библиотекари The Librarians s01 HD720p\The.Librarians.s01e01.HD720p.WEB-DL.Rus.Ukr.Eng.BaibaKo.tv.mkv
Формат : Matroska
Версия формата : Version 4 / Version 2
Размер файла : 2,07 Гбайт
Продолжительность : 57 м.
Общий поток : 5124 Кбит/сек
Дата кодирования : UTC 2014-12-17 21:32:40
Программа кодирования : mkvmerge v7.4.0 ('Circles') 64bit built on Dec 12 2014 12:19:56
Библиотека кодирования : libebml v1.3.0 + libmatroska v1.4.1
DURATION : 00:57:46.091000000
NUMBER_OF_FRAMES : 83103
NUMBER_OF_BYTES : 1719992801
_STATISTICS_WRITING_APP : mkvmerge v7.4.0 ('Circles') 64bit built on Dec 12 2014 12:19:56
_STATISTICS_WRITING_DATE_UTC : 2014-12-17 21:32:40
_STATISTICS_TAGS : BPS DURATION NUMBER_OF_FRAMES NUMBER_OF_BYTES

Видео
Идентификатор : 1
Формат : AVC
Формат/Информация : Advanced Video Codec
Профиль формата : High@L3.1
Параметр CABAC формата : Нет
Параметр ReFrames формата : 2 кадра
Идентификатор кодека : V_MPEG4/ISO/AVC
Продолжительность : 57 м.
Битрейт : 3870 Кбит/сек
Ширина : 1280 пикселей
Высота : 716 пикселей
Соотношение сторон : 16:9
Режим частоты кадров : Постоянный
Частота кадров : 23,976 кадра/сек
Цветовое пространство : YUV
Субдискретизация насыщенности : 4:2:0
Битовая глубина : 8 бит
Тип развёртки : Прогрессивная
Бит/(Пиксели*Кадры) : 0.176
Размер потока : 1,56 Гбайт (76%)
Язык : English
Default : Да
Forced : Нет
Основные цвета : BT.709
Характеристики трансфера : BT.709
Коэффициенты матрицы : BT.709
colour_range : Limited

Аудио #1
Идентификатор : 2
Формат : AC-3
Формат/Информация : Audio Coding 3
Расширение режима : CM (complete main)
Параметр Endianness формата : Big
Идентификатор кодека : A_AC3
Продолжительность : 57 м.
Вид битрейта : Постоянный
Битрейт : 384 Кбит/сек
Каналы : 6 каналов
Расположение каналов : Front: L C R, Side: L R, LFE
Частота : 48,0 КГц
Битовая глубина : 16 бит
Метод сжатия : С потерями
Размер потока : 159 Мбайт (7%)
Язык : Russian
Default : Да
Forced : Нет

Аудио #2
Идентификатор : 3
Формат : AC-3
Формат/Информация : Audio Coding 3
Расширение режима : CM (complete main)
Параметр Endianness формата : Big
Идентификатор кодека : A_AC3
Продолжительность : 57 м.
Вид битрейта : Постоянный
Битрейт : 384 Кбит/сек
Каналы : 6 каналов
Расположение каналов : Front: L C R, Side: L R, LFE
Частота : 48,0 КГц
Битовая глубина : 16 бит
Метод сжатия : С потерями
Размер потока : 159 Мбайт (7%)
Язык : Ukrainian
Default : Нет
Forced : Нет

Аудио #3
Идентификатор : 4
Формат : AC-3
Формат/Информация : Audio Coding 3
Расширение режима : CM (complete main)
Параметр Endianness формата : Big
Идентификатор кодека : A_AC3
Продолжительность : 57 м.
Вид битрейта : Постоянный
Битрейт : 384 Кбит/сек
Каналы : 6 каналов
Расположение каналов : Front: L C R, Side: L R, LFE
Частота : 48,0 КГц
Битовая глубина : 16 бит
Метод сжатия : С потерями
Размер потока : 159 Мбайт (7%)
Язык : English
Default : Нет
Forced : Нет

pb.wtf



Скачать Библиотекари через торрент http://pic.kartinco.top/images/8/iud4h.jpg Скачать фильм Библиотекари через торрент бесплантно в хорошем качестве Описание: Сериал снят по мотивам серии фильмов «Библиотекарь», повествующей о Флинне Карсене. Его миссия заключается в том, чтобы охранять ... 10 10 11
Info! Золотая раздача, скачанное не засчитывается.
Торрент: Зарегистрирован [2015-02-09 09:37] · скачан: 33 раз
Статус: √ проверено
Размер: 16.04 GB
Как cкачать? Как скачать Библиотекари через торрент | qTorrent

% Раздел Тема Автор DL S | L
Зарубежные сериалы [ 6.34 GB ] Библиотекари / The Librarians / Сезон: 1/ Серия 1-10 [2014 WEB-DLRip] MVO+ Original Assasinca Скачать
1 | 0

28-11-2019 20:33  

Отключить всю рекламу на сайте

    Дорогой пользователь! Огромная просьба, поблагодарите релизера, оцените раздачу и оставьте свои комментарий, если Вы скачали Библиотекари через торрент бесплатно! Внесите свою лепту в развитие PiratBit!
    Комментировать посты могут только пользователи прошедшие не сложную регистрацию
    Показать сообщения:    

    Библиотекари через торрент
    Скачать бесплатно Библиотекари
    Библиотекари скачать торрент
    Библиотекари смотреть онлайн
    Cкачать фильм Библиотекари бесплатно
    Библиотекари скачать торрент в хорошем качестве
    Библиотекари смотреть онлайн бесплатно в хорошем качестве


    Вы не можете начинать темы
    Вы не можете отвечать на сообщения
    Вы не можете редактировать свои сообщения
    Вы не можете удалять свои сообщения
    Вы не можете голосовать в опросах
    Вы не можете прикреплять файлы к сообщениям
    Вы можете скачивать файлы