2 сезон

iTunes

MVO

1

2 сезон

iTunes

iTunes

1 сезон

RePack

30

Ultimate

ВАЖНО

ИГРА 18+

pack

RePack

MK11
pack

Легкие деньги

RePack

jed

RePack

fifa19

RePack

RDR2

RePack

NEED FOR SPEED™ PAYBACK

4 сезон

9 сезон

Бесстыжие 9 сезон

Все сериалы

все сериалы на PB.wtf

RePack

FAR CRY 5

Anonymous, доброй ночи, мы не успеваем собрать деньги на оплату серверов за декабрь и январь, помогите нам пожалуйста в это трудное время. В качестве благодарности мы отключим Вам всю рекламу на сайте (укажите свой ник в строку Ваше имя)!

×
  
Magnet ссылка

Девочка со спичками / Das Mädchen mit den Schwefelhölzern (Уве Янсон) [2013 г., фэнтези, семейный, сказка TVRip,]DVO[Студия "Игмар"]+Original pb.wtf

Девочка со спичками через торрент pb.wtf

Размер: 1.22 GB | Добавлен: 6 лет назад | Торрент скачан:855 раз
Скачать  

09-01-2015 10:22 Девочка со спичками Скачать торрент  

Девочка со спичками / Das Mädchen mit den Schwefelhölzern
Год выпуска: 2013
Страна: Германия
Жанр: фэнтези, семейный, сказка
Продолжительность: 00:58:26
Перевод: Профессиональный двухголосый[Студия "Игмар"]

Режиссер: Уве Янсон



В ролях: Лиа Мюллер, Maximilian Ehrenreich, Нина Кунцендорф, Йорг Хартманн, Оливер Кориттке, Фердинанд Леманн, Михаэль Лотт, Тео Требс, Анна Шефер, Керстин Крамер

Описание: « По мотивам сказки Ганса Христиана Андерсена. »
Юная Инга живет в сиротском приюте вместе со своим маленьким другом Эмилем. Приютом управляет жестокая госпожа Ландсфрид, которая заставляет детей работать, чтобы обеспечить ей безбедную жизнь. В канун Рождества Инга вместе с другими детьми выходит на городскую площадь, чтобы продавать спички, но радостные горожане в предчувствии праздника проходят мимо замерзающих детей. Те немногие деньги, что Инге удалось заработать, она отдала Эмилю, чтобы мальчика не наказали. Оставшись на ночной площади, девочка со спичками продолжала ждать, пока кто-нибудь не сжалиться над ней и не купит ее товар. Отчаявшись, девочка зашла в дом, где когда-то жила со своими родителями, и чтобы хоть как-то согреться зажгла спичку...

Качество: TVRip
Формат: AVI
Видео кодек: XviD
Аудио кодек: AC3
Видео: 720x400 (16:9), 25.000 fps, 2 473 Kbps (0.343 bit/pixel)
Аудио#1: 48.0 KHz, 2 ch, 256 Kbps, CBR Русский
Аудио#2: 48.0 KHz, 2 ch, 256 Kbps, CBR Немецкий
скриншот   скриншот   скриншот   скриншот   скриншот   скриншот   скриншот   скриншот  

Общее
Полное имя : I:\Девочка со спичками\Das Madchen mit den Schwefelholzern (2013) TVRip.avi
Формат : AVI
Формат/Информация : Audio Video Interleave
Профиль формата : OpenDML
Настройки формата : rec
Размер файла : 1,22 Гбайт
Продолжительность : 58 м.
Общий поток : 2993 Кбит/сек
Программа кодирования : AVI-Mux GUI 1.17.8.3, Feb 16 201019:42:50

Видео
Идентификатор : 0
Формат : MPEG-4 Visual
Профиль формата : Advanced Simple@L5
Параметр BVOP формата : Нет
Параметр QPel формата : Нет
Параметр GMC формата : Без точки перехода
Параметр матрицы формата : Default (MPEG)
Идентификатор кодека : XVID
Идентификатор кодека/Подсказка : XviD
Продолжительность : 58 м.
Битрейт : 2473 Кбит/сек
Ширина : 720 пикселей
Высота : 400 пикселей
Соотношение сторон : 16:9
Частота кадров : 25,000 кадров/сек
Цветовое пространство : YUV
Субдискретизация насыщенности : 4:2:0
Битовая глубина : 8 бит
Тип развёртки : Прогрессивная
Метод сжатия : С потерями
Бит/(Пиксели*Кадры) : 0.343
Размер потока : 1,01 Гбайт (83%)
Библиотека кодирования : XviD 62

Аудио #1
Идентификатор : 1
Формат : AC-3
Формат/Информация : Audio Coding 3
Расширение режима : CM (complete main)
Параметр Endianness формата : Big
Идентификатор кодека : 2000
Продолжительность : 58 м.
Вид битрейта : Постоянный
Битрейт : 256 Кбит/сек
Каналы : 2 канала
Расположение каналов : Front: L R
Частота : 48,0 КГц
Битовая глубина : 16 бит
Метод сжатия : С потерями
Размер потока : 107 Мбайт (9%)
Выравнивание : Соединение по промежуткам
Продолжительность промежутка : 64 мс. (1,60 видеокадра)
Время предзагрузки промежутка : 192 мс.
Заголовок : Rus_106

Аудио #2
Идентификатор : 2
Формат : AC-3
Формат/Информация : Audio Coding 3
Расширение режима : CM (complete main)
Параметр Endianness формата : Big
Идентификатор кодека : 2000
Продолжительность : 58 м.
Вид битрейта : Постоянный
Битрейт : 256 Кбит/сек
Каналы : 2 канала
Расположение каналов : Front: L R
Частота : 48,0 КГц
Битовая глубина : 16 бит
Метод сжатия : С потерями
Размер потока : 107 Мбайт (9%)
Выравнивание : Соединение по промежуткам
Продолжительность промежутка : 64 мс. (1,60 видеокадра)
Время предзагрузки промежутка : 192 мс.
Заголовок : Ger_106


Девочка со спичками скачать торрент


pb.wtf



Скачать Девочка со спичками через торрент http://pic.kartinco.top/images/8/a85hj.jpg Скачать фильм Девочка со спичками через торрент бесплантно в хорошем качестве Описание: « По мотивам сказки Ганса Христиана Андерсена. »Юная Инга живет в сиротском приюте вместе со своим маленьким другом Эмилем. ... 9.4 10 26
Торрент: Зарегистрирован [2015-01-09 10:22] · скачан: 855 раз
Статус: √ проверено
Размер: 1.22 GB
Как cкачать? Как скачать Девочка со спичками через торрент | UTorrent



Последний раз редактировалось: Assasinca (2015-01-09 10:44), всего редактировалось 1 раз

28-11-2019 20:33  

Отключить всю рекламу на сайте

09-01-2015 10:33 Девочка со спичками Скачать торрент  

жанр: 2013 новенький наверноpb.wtf



09-01-2015 10:45 Девочка со спичками Скачать торрент  

Djinn_Slayer писал(а):

жанр: 2013 новенький наверно

опечатка...сорри pb.wtf



09-01-2015 11:22 Девочка со спичками Скачать торрент  

походу сказочка-качаем-спасибоpb.wtf



09-01-2015 11:53 Девочка со спичками Скачать торрент  

Смотрел недавно данную сказку по телевизору pb.wtf



09-01-2015 13:32 Девочка со спичками Скачать торрент  

сказка взята из старого мультикаpb.wtf



27-01-2015 09:40 Девочка со спичками Скачать торрент  

Lesht52 писал(а):

сказка взята из старого мультика

а мультик выпущен при Гансе Христиане Андерсене...
:jest3:pb.wtf



    Дорогой пользователь! Огромная просьба, поблагодарите релизера, оцените раздачу и оставьте свои комментарий, если Вы скачали Девочка со спичками через торрент бесплатно! Внесите свою лепту в развитие PiratBit!
    Комментировать посты могут только пользователи прошедшие не сложную регистрацию
    Показать сообщения:    

    Девочка со спичками через торрент
    Скачать бесплатно Девочка со спичками
    Девочка со спичками скачать торрент
    Девочка со спичками смотреть онлайн
    Cкачать фильм Девочка со спичками бесплатно
    Девочка со спичками скачать торрент в хорошем качестве
    Девочка со спичками смотреть онлайн бесплатно в хорошем качестве


    Вы не можете начинать темы
    Вы не можете отвечать на сообщения
    Вы не можете редактировать свои сообщения
    Вы не можете удалять свои сообщения
    Вы не можете голосовать в опросах
    Вы не можете прикреплять файлы к сообщениям
    Вы можете скачивать файлы