Ссылка на приватное зеркало нашего сайта всего за 1$. Внимание количество ограничено!!!

2 сезон

iTunes

1 сезон

1

iTunes

iTunes

iTunes

1 сезон

RePack

30

ИГРА 18+

pack

ВАЖНО

!!Акция!!

Alien_RageХит недели

RePack

MK11
pack

Забери бонус

RePack

jed

!!Акция!!

Alien_Rage

RePack

fifa19

RePack

Assassins Creed: Odyssey

RePack

NEED FOR SPEED™ PAYBACK

4 сезон

9 сезон

Бесстыжие 9 сезон

Все сериалы

все сериалы на PB.wtf

RePack

FAR CRY 5
  

Проклятие / Ju-on (Такаши Шимицу) [2002, ужасы, BDRip 1080p] MVO pb.wtf

Проклятие через торрент pb.wtf

Размер: 10.74 GB | Добавлен: 5 лет 9 мес. назад | Торрент скачан:13 раз
Скачать  

09-01-2015 12:38 Проклятие Скачать торрент  

Проклятие / Ju-on

Год выпуска: 2002
Страна: Япония
Жанр: ужасы
Продолжительность: 01:32:02
Перевод: профессиональный многоголосый
Субтитры: нет

Режиссёр: Такаши Шимицу

В ролях: Мегуми Окина, Мисаки Ито, Миса Уехара, Юи Итикава, Кандзи Цуда, Кайоко Шибата, Юкако Кукури, Сюри Мацуда, Ёдзи Танака, Йошиюки Моришита

Описание: Много лет назад в этом доме произошла трагедия: мужчина убил свою жену, а судьба их шестилетнего сына Тошио осталась неизвестна - мальчик исчез. Умирая, несчастная женщина прокляла убийцу и место, где она встретила смерть. Теперь яростный призрак несёт смерть всем, кто осмелился приблизиться к его владениям, и смерть семейства, обитающего теперь в этом доме, была лишь звеном в цепи кровавых убийств и таинственных исчезновений…



Качество: BDRip 1080p
Формат: MKV
Видео кодек: H.264
Аудио кодек: DTS
Видео: 13.4 Mбит/с, 1882x1036, 23.976 кадра/с, 0.286 bpp
Аудио 1: русский, DTS, 1509 kbps, 6 ch, 48 kHz [профессиональный многоголосый, R5]
Аудио 2: японский, DTS, 1509 kbps, 6 ch, 48 kHz [оригинал]

Имеются неименованные главы/чаптеры.
Общее
Уникальный идентификатор : 219506422747771527258319784074577526429 (0xA52366359C31800984ED8B4E432D3E9D)
Полное имя : D:VideoProkljatie.2002.BDRip.1080p.mkv
Формат : Matroska
Версия формата : Version 4 / Version 2
Размер файла : 10,7 Гбайт
Продолжительность : 1 ч. 32 м.
Общий поток : 16,7 Мбит/сек
Дата кодирования : UTC 2015-01-09 10:54:18
Программа кодирования : mkvmerge v7.5.0 ('Glass Culture') 64bit built on Jan 4 2015 16:48:44
Библиотека кодирования : libebml v1.3.1 + libmatroska v1.4.2
DURATION : 01:32:01.803000000
NUMBER_OF_FRAMES : 517669
NUMBER_OF_BYTES : 1041550096
_STATISTICS_WRITING_APP : mkvmerge v7.5.0 ('Glass Culture') 64bit built on Jan 4 2015 16:48:44
_STATISTICS_WRITING_DATE_UTC : 2015-01-09 10:54:18
_STATISTICS_TAGS : BPS DURATION NUMBER_OF_FRAMES NUMBER_OF_BYTES

Видео
Идентификатор : 1
Формат : AVC
Формат/Информация : Advanced Video Codec
Профиль формата : High@L4.1
Параметр CABAC формата : Да
Параметр ReFrames формата : 4 кадра
Идентификатор кодека : V_MPEG4/ISO/AVC
Продолжительность : 1 ч. 32 м.
Битрейт : 13,4 Мбит/сек
Ширина : 1882 пикселя
Высота : 1036 пикселей
Соотношение сторон : 16:9
Режим частоты кадров : Постоянный
Частота кадров : 23,976 кадра/сек
Цветовое пространство : YUV
Субдискретизация насыщенности : 4:2:0
Битовая глубина : 8 бит
Тип развёртки : Прогрессивная
Бит/(Пиксели*Кадры) : 0.286
Размер потока : 8,59 Гбайт (80%)
Заголовок : BDRip -- STarankov
Библиотека кодирования : x264 core 142 r2431 ac76440
Настройки программы : cabac=1 / ref=4 / deblock=1:-1:-1 / analyse=0x3:0x113 / me=umh / subme=10 / psy=1 / psy_rd=1.00:0.15 / mixed_ref=1 / me_range=32 / chroma_me=1 / trellis=2 / 8x8dct=1 / cqm=0 / deadzone=21,11 / fast_pskip=1 / chroma_qp_offset=-3 / threads=6 / lookahead_threads=1 / sliced_threads=0 / nr=0 / decimate=1 / interlaced=0 / bluray_compat=0 / constrained_intra=0 / bframes=8 / b_pyramid=2 / b_adapt=2 / b_bias=0 / direct=3 / weightb=1 / open_gop=0 / weightp=2 / keyint=230 / keyint_min=23 / scenecut=40 / intra_refresh=0 / rc_lookahead=40 / rc=crf / mbtree=0 / crf=18.4 / qcomp=0.60 / qpmin=0 / qpmax=69 / qpstep=4 / vbv_maxrate=40000 / vbv_bufsize=50000 / crf_max=0.0 / nal_hrd=none / filler=0 / ip_ratio=1.40 / pb_ratio=1.30 / aq=1:1.00
Язык : Japanese
Default : Да
Forced : Нет
DURATION : 01:32:01.808000000
NUMBER_OF_FRAMES : 132391
NUMBER_OF_BYTES : 9450331668
_STATISTICS_WRITING_APP : mkvmerge v7.5.0 ('Glass Culture') 64bit built on Jan 4 2015 16:48:44
_STATISTICS_WRITING_DATE_UTC : 2015-01-09 10:54:18
_STATISTICS_TAGS : BPS DURATION NUMBER_OF_FRAMES NUMBER_OF_BYTES

Аудио #1
Идентификатор : 2
Формат : DTS
Формат/Информация : Digital Theater Systems
Режим : 16
Параметр Endianness формата : Big
Идентификатор кодека : A_DTS
Продолжительность : 1 ч. 32 м.
Вид битрейта : Постоянный
Битрейт : 1509 Кбит/сек
Каналы : 6 каналов
Расположение каналов : Front: L C R, Side: L R, LFE
Частота : 48,0 КГц
Битовая глубина : 16 бит
Метод сжатия : С потерями
Размер потока : 993 Мбайт (9%)
Заголовок : MVO (R5)
Язык : Russian
Default : Да
Forced : Нет

Аудио #2
Идентификатор : 3
Формат : DTS
Формат/Информация : Digital Theater Systems
Режим : 16
Параметр Endianness формата : Big
Идентификатор кодека : A_DTS
Продолжительность : 1 ч. 32 м.
Вид битрейта : Постоянный
Битрейт : 1509 Кбит/сек
Каналы : 6 каналов
Расположение каналов : Front: L C R, Side: L R, LFE
Частота : 48,0 КГц
Битовая глубина : 16 бит
Метод сжатия : С потерями
Размер потока : 993 Мбайт (9%)
Заголовок : Original
Язык : Japanese
Default : Нет
Forced : Нет

Меню
00:00:00.000 : :Chapter 01
00:01:16.574 : :Chapter 02
00:04:59.841 : :Chapter 03
00:07:18.270 : :Chapter 04
00:11:16.884 : :Chapter 05
00:13:45.989 : :Chapter 06
00:15:10.408 : :Chapter 07
00:17:27.755 : :Chapter 08
00:20:09.540 : :Chapter 09
00:24:47.152 : :Chapter 10
00:29:17.462 : :Chapter 11
00:30:34.540 : :Chapter 12
00:33:21.832 : :Chapter 13
00:35:53.317 : :Chapter 14
00:38:15.626 : :Chapter 15
00:41:28.734 : :Chapter 16
00:46:17.689 : :Chapter 17
00:49:09.569 : :Chapter 18
00:50:54.300 : :Chapter 19
00:52:57.340 : :Chapter 20
00:53:54.188 : :Chapter 21
00:56:47.237 : :Chapter 22
00:57:58.055 : :Chapter 23
01:00:15.987 : :Chapter 24
01:00:44.014 : :Chapter 25
01:01:50.747 : :Chapter 26
01:04:02.921 : :Chapter 27
01:06:34.197 : :Chapter 28
01:08:19.552 : :Chapter 29
01:09:56.108 : :Chapter 30
01:12:12.911 : :Chapter 31
01:13:47.671 : :Chapter 32
01:14:20.412 : :Chapter 33
01:16:31.586 : :Chapter 34
01:18:21.862 : :Chapter 35
01:20:32.326 : :Chapter 36
01:23:02.268 : :Chapter 37
01:23:40.264 : :Chapter 38
01:26:21.885 : :Chapter 39
01:27:20.859 : :Chapter 40
01:28:25.716 : :Chapter 41
01:29:33.325 : :Chapter 42
01:32:00.805 : :Chapter 43
pb.wtf



Скачать Проклятие через торрент http://i64.fastpic.ru/big/2015/0109/57/1b3d141b9c637d27415f41fbd1aacb57.jpg Скачать фильм Проклятие через торрент бесплантно в хорошем качестве Описание: Много лет назад в этом доме произошла трагедия: мужчина убил свою жену, а судьба их шестилетнего сына Тошио осталась неизвестна - ... 10 10 4
Торрент: Зарегистрирован [2015-01-09 12:38] · скачан: 13 раз
Статус: √ проверено
Размер: 10.74 GB
Как cкачать? Как скачать Проклятие через торрент | qTorrent

% Раздел Тема Автор DL S | L
Фильмы [HD 720p, 1080p] (Хороший звук DUB, MVO) [ 4.77 GB ] Проклятие / Ju-on [2002 BDRip 720p] MVO msltel Скачать
1 | 0

28-11-2019 20:33  

Отключить всю рекламу на сайте

    Дорогой пользователь! Огромная просьба, поблагодарите релизера, оцените раздачу и оставьте свои комментарий, если Вы скачали Проклятие через торрент бесплатно! Внесите свою лепту в развитие PiratBit!
    Комментировать посты могут только пользователи прошедшие не сложную регистрацию
    Показать сообщения:    

    Проклятие через торрент
    Скачать бесплатно Проклятие
    Проклятие скачать торрент
    Проклятие смотреть онлайн
    Cкачать фильм Проклятие бесплатно
    Проклятие скачать торрент в хорошем качестве
    Проклятие смотреть онлайн бесплатно в хорошем качестве


    Вы не можете начинать темы
    Вы не можете отвечать на сообщения
    Вы не можете редактировать свои сообщения
    Вы не можете удалять свои сообщения
    Вы не можете голосовать в опросах
    Вы не можете прикреплять файлы к сообщениям
    Вы можете скачивать файлы