Ссылка на приватное зеркало нашего сайта всего за 1$. Внимание количество ограничено!!!

2 сезон

iTunes

1 сезон

1

iTunes

iTunes

iTunes

1 сезон

RePack

30

ИГРА 18+

pack

ВАЖНО

!!Акция!!

Alien_RageХит недели

RePack

MK11
pack

Забери бонус

RePack

jed

!!Акция!!

Alien_Rage

RePack

fifa19

RePack

Assassins Creed: Odyssey

RePack

NEED FOR SPEED™ PAYBACK

4 сезон

9 сезон

Бесстыжие 9 сезон

Все сериалы

все сериалы на PB.wtf

RePack

FAR CRY 5
  

Страна приливов / Tideland (Терри Гиллиам / Terry Gilliam) [2005, Великобритания, Канада, драма, HDDVDRip 720p] 2xMVO [R5, Инис] + Original + Sub от R.G. PiratFilms pb.wtf

Страна приливов через торрент pb.wtf

Размер: 6.5 GB | Добавлен: 5 лет 9 мес. назад | Торрент скачан:37 раз
Скачать  

09-01-2015 14:23 Страна приливов Скачать торрент  

Страна приливов / Tideland
«C белочками эта земля не так пустынна...»
Год выпуска: 2005
Страна: Великобритания, Канада
Жанр: драма
Продолжительность: 02:00:02
Перевод:
|Профессиональный (двухголосый, закадровый), Лицензия R5
Профессиональный (многоголосый, закадровый) студия Инис|

Субтитры: английские

Режиссер: Терри Гиллиам / Terry Gilliam
В ролях: Джефф Бриджес (Noah), Джоделль Ферланд (Jeliza-Rose / Voices of Sateen Lips, Glitter Gal, Mustique and Baby Blonde), Джанет МакТир (Dell), Брендан Флетчер (Dickens), Дженнифер Тилли (Queen Gunhilda), Дилан Тейлор (Patrick), Венди Андерсон (Woman / Squirrel's Voice), Сэлли Крукс (Dell's Mother), Алдон Адэйр (Luke, в титрах не указан), Митч Каллин (Bus Passenger, в титрах не указан), Гарри Гиллиам (Jerry, в титрах не указан), Кент Нолан (Boy, в титрах не указан)
Описание:
Десятилетней девочке Джелизе-Роуз с родителями явно не повезло. Немолодой папаша наяривает в разбитной рок-группе, по вечерам отправляясь в продолжительные наркотические трипы, мама сидит на таблетках и героине. Но несмотря на это, дочь любит своих родных, ведь других у неё просто нет. В подружках - оторванные головы кукол.
Нездоровый образ жизни сводит матушку в могилу, и Ной (отец) решает увести Джелизу-Роуз в дом своего детства, расположенный в бескрайних просторах пшеничных полей на окраине города. Побег от реальности приведёт их в мрачное царство американского захолустья, где самые смелые городские фантазии выглядят безобидными рождественскими сказками...

Рейтинг

MPAA: R - Лицам до 17 лет обязательно присутствие взрослого

Качество: HDDVDRip 720p |Исходник: Tideland 2005 1080p HDDVD VC-1 DTS
Формат: MKV
Видео кодек: AVC
Аудио кодек: AC3, DTS
Видео: AVC, 1280x544 (2.35:1), 5957 kbps, 23,976 fps, 0,357 bpp
Аудио №1: русский / AC3 / 5.1 / 48 kHz / 448 kbps / 16 bit |R5|
Аудио №2: русский / AC3 / 2.0 / 48 kHz / 192 kbps / 16 bit |Инис|
Аудио №3: английский / DTS / 5.1 / 48 kHz / 1152 kbps / 16 bit
Оформление: Messa-fan
Рип: by Messa-fan

Цитата:

Спасибо Genry13 за DVD R5.
"Звуковая дорожка с переводом студии Инис, записанная с телеканала Еврокино, предоставлена porhaleks. За запись спасибо ItarTass, за синхронизацию Diablo".
Во многих источниках дорожка R5 указана как многоголоска, хотя на самом деле она DVO.

Код:

x264 [info]: frame I:1036  Avg QP:16.94  size:112633
x264 [info]: frame P:39009 Avg QP:19.04  size: 50072
x264 [info]: frame B:132650 Avg QP:20.33  size: 24811
x264 [info]: consecutive B-frames:  1.7%  3.8%  6.0% 29.0% 18.3% 36.0%  2.6%  1.7%  0.9%

Код:

General
Unique ID                                : 252682038114870293169288360051399573646 (0xBE18CA55204DE53A8FBAEDDBA339C08E)
Complete name                            : AHFW\Tideland.2005.HDDVDRip.720p.2xRus.Eng.Sub.mkv
Format                                   : Matroska
Format version                           : Version 4 / Version 2
File size                                : 6.50 GiB
Duration                                 : 2h 0mn
Overall bit rate                         : 7 749 Kbps
Movie name                               : Tideland (2005) HDDVDRip 720p encode by messafan
Encoded date                             : UTC 2015-01-09 03:18:32
Writing application                      : mkvmerge v6.7.0 ('Back to the Ground') 64bit built on Jan  8 2014 15:10:52
Writing library                          : libebml v1.3.0 + libmatroska v1.4.1

Video
ID                                       : 1
Format                                   : AVC
Format/Info                              : Advanced Video Codec
Format profile                           : High@L4.1
Format settings, CABAC                   : Yes
Format settings, ReFrames                : 10 frames
Codec ID                                 : V_MPEG4/ISO/AVC
Duration                                 : 2h 0mn
Bit rate                                 : 5 957 Kbps
Width                                    : 1 280 pixels
Height                                   : 544 pixels
Display aspect ratio                     : 2.35:1
Frame rate                               : 23.976 fps
Color space                              : YUV
Chroma subsampling                       : 4:2:0
Bit depth                                : 8 bits
Scan type                                : Progressive
Bits/(Pixel*Frame)                       : 0.357
Stream size                              : 4.87 GiB (75%)
Title                                    : Tideland (2005) HDDVDRip 720p encode by messafan
Writing library                          : x264 core 142 r2479kMod dd79a61
Encoding settings                        : cabac=1 / ref=10 / deblock=1:-3:-3 / analyse=0x3:0x113 / me=umh / subme=10 / psy=1 / fade_compensate=0.00 / psy_rd=1.02:0.02 / mixed_ref=1 / me_range=32 / chroma_me=1 / trellis=2 / 8x8dct=1 / cqm=0 / deadzone=21,11 / fast_pskip=0 / chroma_qp_offset=-5 / threads=6 / lookahead_threads=1 / sliced_threads=0 / nr=0 / decimate=1 / interlaced=0 / bluray_compat=0 / constrained_intra=0 / fgo=0 / bframes=8 / b_pyramid=2 / b_adapt=2 / b_bias=0 / direct=3 / weightb=1 / open_gop=0 / weightp=1 / keyint=250 / keyint_min=23 / scenecut=40 / intra_refresh=0 / rc_lookahead=60 / rc=2pass / mbtree=1 / bitrate=5957 / ratetol=1.0 / qcomp=0.80 / qpmin=0 / qpmax=69 / qpstep=4 / cplxblur=20.0 / qblur=0.5 / vbv_maxrate=50000 / vbv_bufsize=62500 / nal_hrd=none / filler=0 / ip_ratio=1.30 / aq=1:0.70
Language                                 : English
Default                                  : Yes
Forced                                   : No

Audio #1
ID                                       : 2
Format                                   : AC-3
Format/Info                              : Audio Coding 3
Mode extension                           : CM (complete main)
Codec ID                                 : A_AC3
Duration                                 : 2h 0mn
Bit rate mode                            : Constant
Bit rate                                 : 448 Kbps
Channel(s)                               : 6 channels
Channel positions                        : Front: L C R, Side: L R, LFE
Sampling rate                            : 48.0 KHz
Bit depth                                : 16 bits
Compression mode                         : Lossy
Stream size                              : 385 MiB (6%)
Title                                    : DVO [R5]
Language                                 : Russian
Default                                  : Yes
Forced                                   : No

Audio #2
ID                                       : 3
Format                                   : AC-3
Format/Info                              : Audio Coding 3
Mode extension                           : CM (complete main)
Codec ID                                 : A_AC3
Duration                                 : 2h 0mn
Bit rate mode                            : Constant
Bit rate                                 : 192 Kbps
Channel(s)                               : 2 channels
Channel positions                        : Front: L R
Sampling rate                            : 48.0 KHz
Bit depth                                : 16 bits
Compression mode                         : Lossy
Stream size                              : 165 MiB (2%)
Title                                    : MVO [Inis]
Language                                 : Russian
Default                                  : No
Forced                                   : No

Audio #3
ID                                       : 4
Format                                   : DTS
Format/Info                              : Digital Theater Systems
Codec ID                                 : A_DTS
Duration                                 : 2h 0mn
Bit rate mode                            : Constant
Bit rate                                 : 1 152 Kbps
Channel(s)                               : 6 channels
Channel positions                        : Front: L C R, Side: L R, LFE
Sampling rate                            : 48.0 KHz
Bit depth                                : 16 bits
Compression mode                         : Lossy
Stream size                              : 989 MiB (15%)
Title                                    : Original
Language                                 : English
Default                                  : No
Forced                                   : No

Text
ID                                       : 5
Format                                   : UTF-8
Codec ID                                 : S_TEXT/UTF8
Codec ID/Info                            : UTF-8 Plain Text
Title                                    : Eng Sub
Language                                 : English
Default                                  : No
Forced                                   : No



  • Фильм снят по мотивам романа Митча Каллина «Страна приливов» (Tideland, 2000).
  • Для американской прокатной версии картины Гиллиам записал короткое видеообращение к зрителям, которое транслируется перед каждым показом фильма. В нём содержатся следующие слова: «Hello, my name is Terry Gilliam. Many of you are not going to like this film. Many of you luckily are going to love it. And then the great majority of you are not going to know what you think of it. And I basically say, put away all the things you know, all the things you`ve learned, all your prejudices and fears, the preconceptions that an adult has, and try to be an innocent, as difficult as that is.»
  • Реминисценции из Алисы проходят через весь фильм: поездка в автобусе, падение в нору, кролик, Делл - герцогиня (но в сцене пикника в книге она ведёт себя как Белая Королева из Зазеркалья) и т. д.
  • Съёмки «Страны приливов» стартовали 27 сентября 2004 года в Саскачеване (Канада) и продолжались до 1 декабря, во время творческого отпуска, который Терри Гиллиам взял при работе над «Братьями Гримм».
  • Брендан Флетчер был утверждён на роль Диккенса, до того как Терри Гиллиам с ним познакомился. Гиллиам принял это решение после просмотра демонстрационной кассеты, которую послал ему Флетчер.
  • Джелиза-Роуз читает своему отцу отрывки из «Алисы в стране чудес» Льюиса Кэрролла.
  • Автора романа «Страна приливов» Митча Каллина можно увидеть в фильме в роли одного из пассажиров автобуса.

  • pb.wtf



    Скачать Страна приливов через торрент http://i63.fastpic.ru/big/2015/0109/b2/ff4ca9f6c69738b913b0a35c922b66b2.jpg Скачать фильм Страна приливов через торрент бесплантно в хорошем качестве Описание: Десятилетней девочке Джелизе-Роуз с родителями явно не повезло. Немолодой папаша наяривает в разбитной рок-группе, по вечерам ... 10 10 3
    Info! Золотая раздача, скачанное не засчитывается.
    Торрент: Зарегистрирован [2015-01-09 14:41] · скачан: 37 раз
    Статус: √ проверено
    Размер: 6.5 GB
    Как cкачать? Как скачать Страна приливов через торрент | qTorrent



    Последний раз редактировалось: Messa-fan (2015-01-09 14:59), всего редактировалось 4 раз(а)

    28-11-2019 20:33  

    Отключить всю рекламу на сайте

      Дорогой пользователь! Огромная просьба, поблагодарите релизера, оцените раздачу и оставьте свои комментарий, если Вы скачали Страна приливов через торрент бесплатно! Внесите свою лепту в развитие PiratBit!
      Комментировать посты могут только пользователи прошедшие не сложную регистрацию
      Показать сообщения:    

      Страна приливов через торрент
      Скачать бесплатно Страна приливов
      Страна приливов скачать торрент
      Страна приливов смотреть онлайн
      Cкачать фильм Страна приливов бесплатно
      Страна приливов скачать торрент в хорошем качестве
      Страна приливов смотреть онлайн бесплатно в хорошем качестве


      Вы не можете начинать темы
      Вы не можете отвечать на сообщения
      Вы не можете редактировать свои сообщения
      Вы не можете удалять свои сообщения
      Вы не можете голосовать в опросах
      Вы не можете прикреплять файлы к сообщениям
      Вы можете скачивать файлы