Ссылка на приватное зеркало нашего сайта всего за 1$. Внимание количество ограничено!!!

2 сезон

iTunes

1 сезон

1

iTunes

iTunes

iTunes

1 сезон

RePack

30

ИГРА 18+

pack

ВАЖНО

!!Акция!!

Alien_RageХит недели

RePack

MK11
pack

Забери бонус

RePack

jed

!!Акция!!

Alien_Rage

RePack

fifa19

RePack

Assassins Creed: Odyssey

RePack

NEED FOR SPEED™ PAYBACK

4 сезон

9 сезон

Бесстыжие 9 сезон

Все сериалы

все сериалы на PB.wtf

RePack

FAR CRY 5
  

В доме / Dans la maison (Франсуа Озон / François Ozon) [2012, Франция, триллер, мелодрама, драма, BDRip 720p] Дубляж + Original + Subs от R.G. PiratFilms pb.wtf

В доме через торрент pb.wtf

Размер: 6.51 GB | Добавлен: 5 лет 9 мес. назад | Торрент скачан:54 раза
Скачать  

10-01-2015 14:51 В доме Скачать торрент  

В доме / Dans la maison
«Думаешь, за тобой не интересно подсматривать?»
Год выпуска: 2012
Страна: Франция
Жанр: триллер, мелодрама, драма
Продолжительность: 01:45:13
Перевод:
|Профессиональный (полное дублирование)|
Субтитры: русские, английские

Режиссер: Франсуа Озон / François Ozon
В ролях: Фабрис Лукини (Germain Germain), Эрнст Умоер (Claude Garcia), Кристин Скотт Томас (Jeanne Germain), Эмманюэль Сенье (Esther Artole), Дени Меноше (Rapha Artole père), Бастьен Угетто (Rapha Artole fils), Жан-Франсуа Бальмер (Le proviseur du lycée Gustave Flaubert), Иоланда Моро (Les jumelles Rosalie et Eugénie), Катрин Давенье (Anouk - la secrétaire), Винсент Шмитт (Bernard - le prof de maths), Жак Боск (Monsieur Garcia - le père de Claude), Стефани Кэмпион (La première femme au balcon)
Описание:
Разочаровавшись в своих учениках, учитель благоволит лишь мальчику, сидящему на последней парте и сильно выделяющемуся на фоне остальных. Этот ребенок имеет склонность к подглядыванию и однажды решает написать рассказ о семье своего одноклассника, за которой имеет возможность систематически наблюдать.

Рейтинг

MPAA: R - Лицам до 17 лет обязательно присутствие взрослого

Качество: BDRip 720p |Исходник: 1080p Blu-ray AVC DTS-HD MA 5.1-insinuendo
Формат: MKV
Видео кодек: AVC
Аудио кодек: AC3, DTS
Видео: AVC, 1280x692 (1.850), 6971 kbps, 23,976 fps, 0,328 bpp
Аудио №1: русский / AC3 / 5.1 / 48 kHz / 384 kbps / 16 bit |Дубляж, R5|
Аудио №2: французский / DTS / 5.1 / 48 kHz / 1510 kbps / 16 bit
Оформление: Messa-fan
Рип: by Messa-fan

Цитата:

За исходник русской дорожки и субтитров спасибо vlaa8.
Русские субтитры на DVD R5 изначально значительно отличались в худшую сторону по сравнению с дубляжом, хотя и в нем множество ошибок. Большинство грубых ошибок перевода исправил, там, где посчитал нужным, привел текст субтитров в соответствие с дубляжом. by alextar

Код:

x264 [info]: frame I:918   Avg QP:16.16  size:155763
x264 [info]: frame P:29831 Avg QP:18.02  size: 61548
x264 [info]: frame B:120621 Avg QP:19.83  size: 29181
x264 [info]: consecutive B-frames:  1.3%  1.9%  6.7% 10.8% 11.6% 57.9%  4.3%  0.6%  2.7%  0.7%  1.5%

Код:

General
Unique ID                                : 209027562184192435801982768322203161643 (0x9D413E7EBB7261E9A23B0E4B0F31142B)
Complete name                            : AHFW\Dans.la.maison.2012.BDRip.720p.Rus.Fre.Subs.mkv
Format                                   : Matroska
Format version                           : Version 4 / Version 2
File size                                : 6.51 GiB
Duration                                 : 1h 45mn
Overall bit rate                         : 8 864 Kbps
Movie name                               : Dans la maison (2012) BDRip 720p encode by messafan
Encoded date                             : UTC 2015-01-10 07:27:28
Writing application                      : mkvmerge v6.7.0 ('Back to the Ground') 64bit built on Jan  8 2014 15:10:52
Writing library                          : libebml v1.3.0 + libmatroska v1.4.1

Video
ID                                       : 1
Format                                   : AVC
Format/Info                              : Advanced Video Codec
Format profile                           : High@L4.1
Format settings, CABAC                   : Yes
Format settings, ReFrames                : 7 frames
Codec ID                                 : V_MPEG4/ISO/AVC
Duration                                 : 1h 45mn
Bit rate                                 : 6 971 Kbps
Width                                    : 1 280 pixels
Height                                   : 692 pixels
Display aspect ratio                     : 1.850
Frame rate                               : 23.976 fps
Color space                              : YUV
Chroma subsampling                       : 4:2:0
Bit depth                                : 8 bits
Scan type                                : Progressive
Bits/(Pixel*Frame)                       : 0.328
Stream size                              : 4.99 GiB (77%)
Title                                    : Dans la maison (2012) BDRip 720p encode by messafan
Writing library                          : x264 core 142 r2479kMod dd79a61
Encoding settings                        : cabac=1 / ref=7 / deblock=1:-3:-3 / analyse=0x3:0x113 / me=umh / subme=10 / psy=1 / fade_compensate=0.00 / psy_rd=1.02:0.02 / mixed_ref=1 / me_range=32 / chroma_me=1 / trellis=2 / 8x8dct=1 / cqm=0 / deadzone=21,11 / fast_pskip=0 / chroma_qp_offset=-5 / threads=6 / lookahead_threads=1 / sliced_threads=0 / nr=0 / decimate=1 / interlaced=0 / bluray_compat=0 / constrained_intra=0 / fgo=0 / bframes=10 / b_pyramid=2 / b_adapt=2 / b_bias=0 / direct=3 / weightb=1 / open_gop=0 / weightp=1 / keyint=250 / keyint_min=23 / scenecut=40 / intra_refresh=0 / rc_lookahead=60 / rc=2pass / mbtree=1 / bitrate=6971 / ratetol=1.0 / qcomp=0.70 / qpmin=0 / qpmax=69 / qpstep=4 / cplxblur=20.0 / qblur=0.5 / vbv_maxrate=50000 / vbv_bufsize=62500 / nal_hrd=none / filler=0 / ip_ratio=1.25 / aq=1:0.80
Language                                 : English
Default                                  : Yes
Forced                                   : No

Audio #1
ID                                       : 2
Format                                   : AC-3
Format/Info                              : Audio Coding 3
Mode extension                           : CM (complete main)
Codec ID                                 : A_AC3
Duration                                 : 1h 45mn
Bit rate mode                            : Constant
Bit rate                                 : 384 Kbps
Channel(s)                               : 6 channels
Channel positions                        : Front: L C R, Side: L R, LFE
Sampling rate                            : 48.0 KHz
Bit depth                                : 16 bits
Compression mode                         : Lossy
Stream size                              : 289 MiB (4%)
Title                                    : DUB [R5]
Language                                 : Russian
Default                                  : Yes
Forced                                   : No

Audio #2
ID                                       : 3
Format                                   : DTS
Format/Info                              : Digital Theater Systems
Codec ID                                 : A_DTS
Duration                                 : 1h 45mn
Bit rate mode                            : Constant
Bit rate                                 : 1 510 Kbps
Channel(s)                               : 6 channels
Channel positions                        : Front: L C R, Side: L R, LFE
Sampling rate                            : 48.0 KHz
Bit depth                                : 16 bits
Compression mode                         : Lossy
Stream size                              : 1.11 GiB (17%)
Language                                 : French
Default                                  : No
Forced                                   : No

Text #1
ID                                       : 4
Format                                   : UTF-8
Codec ID                                 : S_TEXT/UTF8
Codec ID/Info                            : UTF-8 Plain Text
Language                                 : Russian
Default                                  : No
Forced                                   : No

Text #2
ID                                       : 5
Format                                   : UTF-8
Codec ID                                 : S_TEXT/UTF8
Codec ID/Info                            : UTF-8 Plain Text
Language                                 : English
Default                                  : No
Forced                                   : No

Menu
00:00:00.000                             : :00:00:00.000
00:08:42.522                             : :00:08:42.522
00:14:02.258                             : :00:14:02.258
00:19:38.594                             : :00:19:38.594
00:26:21.121                             : :00:26:21.121
00:33:35.513                             : :00:33:35.513
00:40:48.821                             : :00:40:48.821
00:47:51.201                             : :00:47:51.201
00:53:41.259                             : :00:53:41.259
01:00:47.185                             : :01:00:47.185
01:08:14.048                             : :01:08:14.048
01:15:55.384                             : :01:15:55.384
01:23:21.413                             : :01:23:21.413
01:29:17.226                             : :01:29:17.226
01:37:56.662                             : :01:37:56.662
01:42:18.757                             : :01:42:18.757
01:44:57.332                             : :01:44:57.332



  • Фильм снят по мотивам пьесы Хуана Майорги «Мальчик за последней партой» (El chico de la ultima fila, 2006).

  • pb.wtf



    Скачать В доме через торрент http://i63.fastpic.ru/big/2015/0110/af/875ab91585d49af6815ff6e0b6a5bdaf.png Скачать фильм В доме через торрент бесплантно в хорошем качестве Описание: Разочаровавшись в своих учениках, учитель благоволит лишь мальчику, сидящему на последней парте и сильно выделяющемуся на фоне ... 10 10 5
    Info! Золотая раздача, скачанное не засчитывается.
    Торрент: Зарегистрирован [2015-01-10 14:54] · скачан: 54 раз
    Статус: √ проверено
    Размер: 6.51 GB
    Как cкачать? Как скачать В доме через торрент | qTorrent



    Последний раз редактировалось: Messa-fan (2015-01-10 14:54), всего редактировалось 2 раз(а)

    28-11-2019 20:33  

    Отключить всю рекламу на сайте

    10-01-2015 15:06 В доме Скачать торрент  

    Не мог я обойти вниманием творчества Франсуа Озона :)pb.wtf



      Дорогой пользователь! Огромная просьба, поблагодарите релизера, оцените раздачу и оставьте свои комментарий, если Вы скачали В доме через торрент бесплатно! Внесите свою лепту в развитие PiratBit!
      Комментировать посты могут только пользователи прошедшие не сложную регистрацию
      Показать сообщения:    

      В доме через торрент
      Скачать бесплатно В доме
      В доме скачать торрент
      В доме смотреть онлайн
      Cкачать фильм В доме бесплатно
      В доме скачать торрент в хорошем качестве
      В доме смотреть онлайн бесплатно в хорошем качестве


      Вы не можете начинать темы
      Вы не можете отвечать на сообщения
      Вы не можете редактировать свои сообщения
      Вы не можете удалять свои сообщения
      Вы не можете голосовать в опросах
      Вы не можете прикреплять файлы к сообщениям
      Вы можете скачивать файлы