Ссылка на приватное зеркало нашего сайта всего за 1$. Внимание количество ограничено!!!

2 сезон

iTunes

1 сезон

1

2 сезон

2 сезон

iTunes

1 сезон

RePack

30

Ultimate

ВАЖНО

ИГРА 18+

pack

RePack

MK11
pack

Забери бонус

RePack

jed

!!Акция!!

Alien_Rage

RePack

fifa19

RePack

Assassins Creed: Odyssey

RePack

NEED FOR SPEED™ PAYBACK

4 сезон

9 сезон

Бесстыжие 9 сезон

Все сериалы

все сериалы на PB.wtf

RePack

FAR CRY 5
  

11, 12, 13 друзей Оушена / Ocean's Eleven (Стивен Содерберг / Steven Soderbergh) [2001 - 2007, США, триллер, криминал, Blu-ray Remux, DUB] pb.wtf

11, 12, 13 друзей Оушена через торрент pb.wtf

Размер: 46.9 GB | Добавлен: 5 лет 10 мес. назад | Торрент скачан:72 раза
Скачать  

11-01-2015 00:49 11, 12, 13 друзей Оушена Скачать торрент  

Одиннадцать друзей Оушена / Ocean's Eleven

Год выпуска: 2001
Страна:США
Жанр: триллер, криминал
Продолжительность: 01:56:34
Перевод: Дублированный
Субтитры: Английский, Русский, Украинский
Режиссер: Стивен Содерберг / Steven Soderbergh
В ролях:
Джордж Клуни (Danny Ocean), Брэд Питт (Rusty Ryan), Мэтт Дэймон (Linus Caldwell), Джулия Робертс (Tess Ocean), Энди Гарсиа (Terry Benedict), Кейси Аффлек (Virgil Malloy), Скотт Каан (Turk Malloy), Эллиотт Гулд (Reuben Tishkoff), Берни Мак (Frank Catton), Дон Чидл (Basher Tarr, в титрах не указан), Карл Райнер (Saul Bloom), Цинь Шаобо (Yen)

Описание:
После выхода из тюрьмы вора Дэнни Оушена не проходит и 24 часов, а он уже планирует организовать самое сложное ограбление казино в истории. Он хочет украсть 160 млн. американских долларов из трех самых преуспевающих казино Лас-Вегаса.
Все эти казино принадлежат элегантному и в то же время жестокому дельцу Терри Бенедикту, который только и мечтает о том, как встретится с бывшей женой Дэнни Оушена - Тесс. Возможно это только совпадение? А может быть это повод?
Всего за одну ночь Дэнни подбирает команду из одиннадцати «специалистов», способных совершить эту дерзкую кражу. В команде Оушена оказываются первоклассный карточный шулер, молодой искусный вор-карманник и гениальный разрушитель.
Чтобы совершить этот безумный и сложный грабеж Оушену придется рисковать своей жизнью, однако его почти невыполнимый план может все-таки удастся..
Рейтинг:


Качество: Blu-ray Remux
Формат: MKV
Видео кодек: VC-1
Аудио кодек: AC3
Видео: VC-1, 1920x1080 (16:9), 18068 kbps, 23,976 fps, 0,363 bpp
Аудио №1: английский / AC3 / 5.1 / 48 kHz / 640 kbps / 16 bit
Аудио №2: русский / AC3 / 5.1 / 48 kHz / 640 kbps / 16 bit ||
Навигация по главам: есть

Код:

Общее
Уникальный идентификатор                 : 214931518052808756513222303569163017478 (0xA1B24DFE44427924BE086161C0275D06)
Полное имя                               : H:\11 друзей Оушена.2001.BDRemux.mkv
Формат                                   : Matroska
Версия формата                           : Version 2
Размер файла                             : 16,1 Гбайт
Продолжительность                        : 1 ч. 56 м.
Общий поток                              : 19,7 Мбит/сек
Дата кодирования                         : UTC 2014-03-22 11:35:00
Программа кодирования                    : mkvmerge v5.0.1 ('Es ist Sommer') built on Nov  6 2011 16:23:40
Библиотека кодирования                   : libebml v1.2.2 + libmatroska v1.3.0

Видео
Идентификатор                            : 1
Формат                                   : VC-1
Профиль формата                          : Advanced@L3
Идентификатор кодека                     : V_MS/VFW/FOURCC / WVC1
Идентификатор кодека/Подсказка           : Microsoft
Продолжительность                        : 1 ч. 56 м.
Битрейт                                  : 18,1 Мбит/сек
Ширина                                   : 1920 пикселей
Высота                                   : 1080 пикселей
Соотношение сторон                       : 16:9
Режим частоты кадров                     : Постоянный
Частота кадров                           : 23,976 кадра/сек
Цветовое пространство                    : YUV
Субдискретизация насыщенности            : 4:2:0
Битовая глубина                          : 8 бит
Тип развёртки                            : Прогрессивная
Метод сжатия                             : С потерями
Бит/(Пиксели*Кадры)                      : 0.363
Размер потока                            : 14,7 Гбайт (92%)
Default                                  : Да
Forced                                   : Нет

Аудио #1
Идентификатор                            : 2
Формат                                   : AC-3
Формат/Информация                        : Audio Coding 3
Расширение режима                        : CM (complete main)
Параметр Endianness формата              : Big
Режим смешивания                         : Header stripping
Идентификатор кодека                     : A_AC3
Продолжительность                        : 1 ч. 56 м.
Вид битрейта                             : Постоянный
Битрейт                                  : 640 Кбит/сек
Каналы                                   : 6 каналов
Расположение каналов                     : Front: L C R, Side: L R, LFE
Частота                                  : 48,0 КГц
Битовая глубина                          : 16 бит
Метод сжатия                             : С потерями
Размер потока                            : 534 Мбайт (3%)
Заголовок                                : Оригинал
Язык                                     : English
Default                                  : Нет
Forced                                   : Нет

Аудио #2
Идентификатор                            : 3
Формат                                   : AC-3
Формат/Информация                        : Audio Coding 3
Расширение режима                        : CM (complete main)
Параметр Endianness формата              : Big
Режим смешивания                         : Header stripping
Идентификатор кодека                     : A_AC3
Продолжительность                        : 1 ч. 56 м.
Вид битрейта                             : Постоянный
Битрейт                                  : 640 Кбит/сек
Каналы                                   : 6 каналов
Расположение каналов                     : Front: L C R, Side: L R, LFE
Частота                                  : 48,0 КГц
Битовая глубина                          : 16 бит
Метод сжатия                             : С потерями
Размер потока                            : 534 Мбайт (3%)
Заголовок                                : Русский (Дубляж)
Язык                                     : Russian
Default                                  : Да
Forced                                   : Нет

Текст #1
Идентификатор                            : 4
Формат                                   : PGS
Режим смешивания                         : zlib
Идентификатор кодека                     : S_HDMV/PGS
Идентификатор кодека/Информация          : The same subtitle format used on BDs/HD-DVDs
Заголовок                                : Английский
Default                                  : Нет
Forced                                   : Нет

Текст #2
Идентификатор                            : 5
Формат                                   : PGS
Режим смешивания                         : zlib
Идентификатор кодека                     : S_HDMV/PGS
Идентификатор кодека/Информация          : The same subtitle format used on BDs/HD-DVDs
Заголовок                                : Русский
Default                                  : Да
Forced                                   : Нет

Текст #3
Идентификатор                            : 6
Формат                                   : PGS
Режим смешивания                         : zlib
Идентификатор кодека                     : S_HDMV/PGS
Идентификатор кодека/Информация          : The same subtitle format used on BDs/HD-DVDs
Заголовок                                : Украинский
Default                                  : Нет
Forced                                   : Нет

Меню
00:00:00.000                             : :(безымянный)
00:02:06.960                             : :(безымянный)
00:05:10.310                             : :(безымянный)
00:11:16.342                             : :(безымянный)
00:14:27.032                             : :(безымянный)
00:18:26.939                             : :(безымянный)
00:20:27.559                             : :(безымянный)
00:23:10.222                             : :(безымянный)
00:25:57.222                             : :(безымянный)
00:28:17.028                             : :(безымянный)
00:33:35.179                             : :(безымянный)
00:39:39.543                             : :(безымянный)
00:42:34.718                             : :(безымянный)
00:44:30.000                             : :(безымянный)
00:48:44.755                             : :(безымянный)
00:54:00.904                             : :(безымянный)
00:56:36.226                             : :(безымянный)
00:58:18.494                             : :(безымянный)
01:01:52.708                             : :(безымянный)
01:04:02.505                             : :(безымянный)
01:05:27.256                             : :(безымянный)
01:08:31.273                             : :(безымянный)
01:13:20.229                             : :(безымянный)
01:16:23.578                             : :(безымянный)
01:19:30.098                             : :(безымянный)
01:22:34.616                             : :(безымянный)
01:25:11.606                             : :(безымянный)
01:29:34.035                             : :(безымянный)
01:33:22.596                             : :(безымянный)
01:35:27.888                             : :(безымянный)
01:39:16.116                             : :(безымянный)
01:41:32.086                             : :(безымянный)
01:44:10.243                             : :(безымянный)
01:49:12.546                             : :(безымянный)
01:51:33.853                             : :(безымянный)
01:56:33.945                             : :(безымянный)

скриншот   скриншот   скриншот   скриншот  
Двенадцать друзей Оушена / Ocean's Twelve

Год выпуска: 2004
Страна:США
Жанр: триллер, криминал
Продолжительность: 02:05:18
Перевод: Дублированный
Субтитры: Английские, Русские, Украинские
Режиссер: Стивен Содерберг / Steven Soderbergh
В ролях:
Джордж Клуни (Danny Ocean), Брэд Питт (Rusty Ryan), Мэтт Дэймон (Linus Caldwell), Кэтрин Зета-Джонс (Isabel Lahiri), Джулия Робертс (Tess Ocean), Дон Чидл (Basher Tarr), Венсан Кассель (Francois Toulour), Карл Райнер (Saul Bloom), Эллиотт Гулд (Reuben Tishkoff), Скотт Каан (Turk Malloy), Кейси Аффлек (Virgil Malloy), Берни Мак (Frank Catton)

Описание:
И снова гангстер Денни Оушен собирает свою банду профессиональных грабителей и мошенников, в которой появились и новые лица. На этот раз они задумали провернуть три ограбления в крупнейших европейских столицах. Возможно, для этого банде придется разделиться на три группы.
Тем временем владелец казино Терри Бенедикт, которого Оушен со своими приятелями обчистил в Лас-Вегасе, жаждет мести и буквально висит у них на хвосте... Он зол и пытается настигнуть банду, за которой также охотятся агенты Европола и таинственный французский конкурент по имени Диннер Джекет...
Рейтинг:


Качество: Blu-ray Remux
Формат: MKV
Видео кодек: VC-1
Аудио кодек: AC3
Видео: VC-1, 1920x1080 (16:9), 15773 kbps, 23,976 fps, 0,317 bpp
Аудио №1: английский / AC3 / 5.1 / 48 kHz / 640 kbps / 16 bit
Аудио №2: русский / AC3 / 5.1 / 48 kHz / 640 kbps / 16 bit ||
Навигация по главам: есть

Код:

Общее
Уникальный идентификатор                 : 182439090615183164457968831365109149855 (0x89407DA2B9EC8855A7F5DC86B39A709F)
Полное имя                               : H:\Друзья Оушена - Трилогия\12 друзей Оушена.2004.BDRemux.mkv
Формат                                   : Matroska
Версия формата                           : Version 2
Размер файла                             : 15,2 Гбайт
Продолжительность                        : 2 ч. 5 м.
Общий поток                              : 17,4 Мбит/сек
Дата кодирования                         : UTC 2014-03-22 16:03:06
Программа кодирования                    : mkvmerge v5.0.1 ('Es ist Sommer') built on Nov  6 2011 16:23:40
Библиотека кодирования                   : libebml v1.2.2 + libmatroska v1.3.0

Видео
Идентификатор                            : 1
Формат                                   : VC-1
Профиль формата                          : Advanced@L3
Идентификатор кодека                     : V_MS/VFW/FOURCC / WVC1
Идентификатор кодека/Подсказка           : Microsoft
Продолжительность                        : 2 ч. 5 м.
Битрейт                                  : 15,8 Мбит/сек
Ширина                                   : 1920 пикселей
Высота                                   : 1080 пикселей
Соотношение сторон                       : 16:9
Режим частоты кадров                     : Постоянный
Частота кадров                           : 23,976 кадра/сек
Цветовое пространство                    : YUV
Субдискретизация насыщенности            : 4:2:0
Битовая глубина                          : 8 бит
Тип развёртки                            : Прогрессивная
Метод сжатия                             : С потерями
Бит/(Пиксели*Кадры)                      : 0.317
Размер потока                            : 13,8 Гбайт (91%)
Default                                  : Да
Forced                                   : Нет

Аудио #1
Идентификатор                            : 2
Формат                                   : AC-3
Формат/Информация                        : Audio Coding 3
Расширение режима                        : CM (complete main)
Параметр Endianness формата              : Big
Режим смешивания                         : Header stripping
Идентификатор кодека                     : A_AC3
Продолжительность                        : 2 ч. 5 м.
Вид битрейта                             : Постоянный
Битрейт                                  : 640 Кбит/сек
Каналы                                   : 6 каналов
Расположение каналов                     : Front: L C R, Side: L R, LFE
Частота                                  : 48,0 КГц
Битовая глубина                          : 16 бит
Метод сжатия                             : С потерями
Размер потока                            : 574 Мбайт (4%)
Заголовок                                : Оригинал
Язык                                     : English
Default                                  : Нет
Forced                                   : Нет

Аудио #2
Идентификатор                            : 3
Формат                                   : AC-3
Формат/Информация                        : Audio Coding 3
Расширение режима                        : CM (complete main)
Параметр Endianness формата              : Big
Режим смешивания                         : Header stripping
Идентификатор кодека                     : A_AC3
Продолжительность                        : 2 ч. 5 м.
Вид битрейта                             : Постоянный
Битрейт                                  : 640 Кбит/сек
Каналы                                   : 6 каналов
Расположение каналов                     : Front: L C R, Side: L R, LFE
Частота                                  : 48,0 КГц
Битовая глубина                          : 16 бит
Метод сжатия                             : С потерями
Размер потока                            : 574 Мбайт (4%)
Заголовок                                : Русский (Дубляж)
Язык                                     : Russian
Default                                  : Да
Forced                                   : Нет

Текст #1
Идентификатор                            : 4
Формат                                   : PGS
Режим смешивания                         : zlib
Идентификатор кодека                     : S_HDMV/PGS
Идентификатор кодека/Информация          : The same subtitle format used on BDs/HD-DVDs
Заголовок                                : Английский
Язык                                     : English
Default                                  : Нет
Forced                                   : Нет

Текст #2
Идентификатор                            : 5
Формат                                   : PGS
Режим смешивания                         : zlib
Идентификатор кодека                     : S_HDMV/PGS
Идентификатор кодека/Информация          : The same subtitle format used on BDs/HD-DVDs
Заголовок                                : Русский
Язык                                     : Russian
Default                                  : Да
Forced                                   : Да

Текст #3
Идентификатор                            : 6
Формат                                   : PGS
Режим смешивания                         : zlib
Идентификатор кодека                     : S_HDMV/PGS
Идентификатор кодека/Информация          : The same subtitle format used on BDs/HD-DVDs
Заголовок                                : Украинский
Язык                                     : Ukrainian
Default                                  : Нет
Forced                                   : Нет

Меню
00:00:00.000                             : :(безымянный)
00:03:07.228                             : :(безымянный)
00:08:09.822                             : :(безымянный)
00:14:52.057                             : :(безымянный)
00:16:39.999                             : :(безымянный)
00:22:04.489                             : :(безымянный)
00:24:09.614                             : :(безымянный)
00:27:16.134                             : :(безымянный)
00:30:58.523                             : :(безымянный)
00:36:16.007                             : :(безымянный)
00:39:37.708                             : :(безымянный)
00:41:31.989                             : :(безымянный)
00:45:17.548                             : :(безымянный)
00:51:16.406                             : :(безымянный)
00:56:44.234                             : :(безымянный)
00:58:47.690                             : :(безымянный)
01:02:00.216                             : :(безымянный)
01:03:33.309                             : :(безымянный)
01:05:53.449                             : :(безымянный)
01:09:49.018                             : :(безымянный)
01:13:10.552                             : :(безымянный)
01:15:32.027                             : :(безымянный)
01:17:25.140                             : :(безымянный)
01:20:23.819                             : :(безымянный)
01:22:50.966                             : :(безымянный)
01:26:02.323                             : :(безымянный)
01:30:49.444                             : :(безымянный)
01:35:19.547                             : :(безымянный)
01:38:13.721                             : :(безымянный)
01:41:21.408                             : :(безымянный)
01:44:19.753                             : :(безымянный)
01:46:35.389                             : :(безымянный)
01:48:38.511                             : :(безымянный)
01:53:47.320                             : :(безымянный)
01:57:24.537                             : :(безымянный)
01:58:47.620                             : :(безымянный)
02:05:17.801                             : :(безымянный)

скриншот   скриншот   скриншот   скриншот  
Тринадцать друзей Оушена / Ocean's Thirteen

Год выпуска: 2007
Страна:США
Жанр: триллер, криминал
Продолжительность: 02:02:09
Перевод: Дублированный
Субтитры: Английские, Русские, Украинские
Режиссер: Стивен Содерберг / Steven Soderbergh
В ролях:
Джордж Клуни (Danny Ocean), Брэд Питт (Rusty Ryan), Мэтт Дэймон (Linus Caldwell / Lenny Pepperidge), Аль Пачино (Willy Bank), Дон Чидл (Basher Tarr), Эллиотт Гулд (Reuben Tishkoff), Кейси Аффлек (Virgil Malloy), Скотт Каан (Turk Malloy), Дэвид Пэймер (The V.U.P.), Эллен Баркин (Abigail Sponder), Эдди Джемисон (Livingston Dell), Энди Гарсиа (Terry Benedict)

Описание:
Новая глава о криминальных похождениях Дэнни Оушена и его команды талантливейших мошенников в Лас-Вегасе.
У Дэнни Оушена и его команды могла быть только одна причина, по которой они готовы провернуть самое амбициозное и рискованное ограбление казино в их жизни, - ради защиты одного из «своих».
Когда безжалостный владелец казино Уилли Бэнк подставляет одного из некогда одиннадцати друзей Оушена, - а именно Рубена Тишкоффа, - Дэнни и его верным соратникам ничего не остается, как вновь объединиться, чтобы проверить, по силам ли им все еще сорвать «банк».
Рейтинг:


Качество: Blu-ray Remux
Формат: MKV
Видео кодек: VC-1
Аудио кодек: AC3
Видео: VC-1, 1920x1080 (16:9), 16641 kbps, 23,976 fps, 0,335 bpp
Аудио №1: английский / AC3 / 5.1 / 48 kHz / 640 kbps / 16 bit
Аудио №2: русский / AC3 / 5.1 / 48 kHz / 640 kbps / 16 bit ||
Навигация по главам: есть

Код:

Общее
Уникальный идентификатор                 : 242951323368199227835689911832011140716 (0xB6C6B90E07B3BE7C922373B1B368EE6C)
Полное имя                               : H:\Друзья Оушена - Трилогия\13 друзей Оушена.2007.BDRemux.mkv
Формат                                   : Matroska
Версия формата                           : Version 2
Размер файла                             : 15,6 Гбайт
Продолжительность                        : 2 ч. 2 м.
Общий поток                              : 18,3 Мбит/сек
Дата кодирования                         : UTC 2014-03-22 17:00:25
Программа кодирования                    : mkvmerge v5.0.1 ('Es ist Sommer') built on Nov  6 2011 16:23:40
Библиотека кодирования                   : libebml v1.2.2 + libmatroska v1.3.0

Видео
Идентификатор                            : 1
Формат                                   : VC-1
Профиль формата                          : Advanced@L3
Идентификатор кодека                     : V_MS/VFW/FOURCC / WVC1
Идентификатор кодека/Подсказка           : Microsoft
Продолжительность                        : 2 ч. 2 м.
Битрейт                                  : 16,6 Мбит/сек
Ширина                                   : 1920 пикселей
Высота                                   : 1080 пикселей
Соотношение сторон                       : 16:9
Режим частоты кадров                     : Постоянный
Частота кадров                           : 23,976 кадра/сек
Цветовое пространство                    : YUV
Субдискретизация насыщенности            : 4:2:0
Битовая глубина                          : 8 бит
Тип развёртки                            : Прогрессивная
Метод сжатия                             : С потерями
Бит/(Пиксели*Кадры)                      : 0.335
Размер потока                            : 14,2 Гбайт (91%)
Default                                  : Да
Forced                                   : Нет

Аудио #1
Идентификатор                            : 2
Формат                                   : AC-3
Формат/Информация                        : Audio Coding 3
Расширение режима                        : CM (complete main)
Параметр Endianness формата              : Big
Режим смешивания                         : Header stripping
Идентификатор кодека                     : A_AC3
Продолжительность                        : 2 ч. 2 м.
Вид битрейта                             : Постоянный
Битрейт                                  : 640 Кбит/сек
Каналы                                   : 6 каналов
Расположение каналов                     : Front: L C R, Side: L R, LFE
Частота                                  : 48,0 КГц
Битовая глубина                          : 16 бит
Метод сжатия                             : С потерями
Размер потока                            : 559 Мбайт (4%)
Заголовок                                : Оригинал
Язык                                     : English
Default                                  : Нет
Forced                                   : Нет

Аудио #2
Идентификатор                            : 3
Формат                                   : AC-3
Формат/Информация                        : Audio Coding 3
Расширение режима                        : CM (complete main)
Параметр Endianness формата              : Big
Режим смешивания                         : Header stripping
Идентификатор кодека                     : A_AC3
Продолжительность                        : 2 ч. 2 м.
Вид битрейта                             : Постоянный
Битрейт                                  : 640 Кбит/сек
Каналы                                   : 6 каналов
Расположение каналов                     : Front: L C R, Side: L R, LFE
Частота                                  : 48,0 КГц
Битовая глубина                          : 16 бит
Метод сжатия                             : С потерями
Размер потока                            : 559 Мбайт (4%)
Заголовок                                : Русский (Дубляж)
Язык                                     : Russian
Default                                  : Да
Forced                                   : Нет

Текст #1
Идентификатор                            : 4
Формат                                   : PGS
Режим смешивания                         : zlib
Идентификатор кодека                     : S_HDMV/PGS
Идентификатор кодека/Информация          : The same subtitle format used on BDs/HD-DVDs
Заголовок                                : Английский
Язык                                     : English
Default                                  : Нет
Forced                                   : Нет

Текст #2
Идентификатор                            : 5
Формат                                   : PGS
Режим смешивания                         : zlib
Идентификатор кодека                     : S_HDMV/PGS
Идентификатор кодека/Информация          : The same subtitle format used on BDs/HD-DVDs
Заголовок                                : Русский
Язык                                     : Russian
Default                                  : Да
Forced                                   : Нет

Текст #3
Идентификатор                            : 6
Формат                                   : PGS
Режим смешивания                         : zlib
Идентификатор кодека                     : S_HDMV/PGS
Идентификатор кодека/Информация          : The same subtitle format used on BDs/HD-DVDs
Заголовок                                : Украинский
Язык                                     : Ukrainian
Default                                  : Нет
Forced                                   : Нет

Меню
00:00:00.000                             : :(безымянный)
00:04:42.281                             : :(безымянный)
00:07:38.458                             : :(безымянный)
00:10:06.105                             : :(безымянный)
00:13:11.957                             : :(безымянный)
00:17:26.879                             : :(безымянный)
00:21:30.122                             : :(безымянный)
00:24:26.464                             : :(безымянный)
00:27:42.827                             : :(безымянный)
00:30:36.501                             : :(безымянный)
00:32:38.289                             : :(безымянный)
00:39:01.839                             : :(безымянный)
00:42:08.859                             : :(безымянный)
00:46:22.613                             : :(безымянный)
00:49:41.645                             : :(безымянный)
00:51:43.266                             : :(безымянный)
00:53:30.040                             : :(безымянный)
00:58:10.820                             : :(безымянный)
01:00:49.646                             : :(безымянный)
01:07:24.206                             : :(безымянный)
01:10:53.749                             : :(безымянный)
01:13:31.240                             : :(безымянный)
01:18:04.513                             : :(безымянный)
01:21:22.377                             : :(безымянный)
01:26:11.166                             : :(безымянный)
01:28:35.476                             : :(безымянный)
01:32:34.715                             : :(безымянный)
01:34:43.344                             : :(безымянный)
01:37:17.164                             : :(безымянный)
01:40:58.886                             : :(безымянный)
01:43:09.683                             : :(безымянный)
01:50:20.113                             : :(безымянный)
01:52:35.415                             : :(безымянный)
01:56:37.490                             : :(безымянный)
02:02:08.988                             : :(безымянный)

скриншот   скриншот   скриншот   скриншот  
pb.wtf



Скачать 11, 12, 13 друзей Оушена через торрент http://pic.kartinco.top/images/8/inj9s.jpg Скачать фильм 11, 12, 13 друзей Оушена через торрент бесплантно в хорошем качестве Описание: После выхода из тюрьмы вора Дэнни Оушена не проходит и 24 часов, а он уже планирует организовать самое сложное ограбление казино ... 10 10 13
Info! Золотая раздача, скачанное не засчитывается.
Торрент: Зарегистрирован [2015-01-11 01:12] · скачан: 72 раз
Статус: √ проверено
Размер: 46.9 GB
Как cкачать? Как скачать 11, 12, 13 друзей Оушена через торрент | qTorrent



Последний раз редактировалось: -Lockdown- (2015-01-13 04:32), всего редактировалось 1 раз

28-11-2019 20:33  

Отключить всю рекламу на сайте

11-01-2015 06:57 11, 12, 13 друзей Оушена Скачать торрент  

какой он дружелюбный sarcasticpb.wtf



    Дорогой пользователь! Огромная просьба, поблагодарите релизера, оцените раздачу и оставьте свои комментарий, если Вы скачали 11, 12, 13 друзей Оушена через торрент бесплатно! Внесите свою лепту в развитие PiratBit!
    Комментировать посты могут только пользователи прошедшие не сложную регистрацию
    Показать сообщения:    

    11, 12, 13 друзей Оушена через торрент
    Скачать бесплатно 11, 12, 13 друзей Оушена
    11, 12, 13 друзей Оушена скачать торрент
    11, 12, 13 друзей Оушена смотреть онлайн
    Cкачать фильм 11, 12, 13 друзей Оушена бесплатно
    11, 12, 13 друзей Оушена скачать торрент в хорошем качестве
    11, 12, 13 друзей Оушена смотреть онлайн бесплатно в хорошем качестве


    Вы не можете начинать темы
    Вы не можете отвечать на сообщения
    Вы не можете редактировать свои сообщения
    Вы не можете удалять свои сообщения
    Вы не можете голосовать в опросах
    Вы не можете прикреплять файлы к сообщениям
    Вы можете скачивать файлы