Ссылка на приватное зеркало нашего сайта всего за 1$. Внимание количество ограничено!!!

2 сезон

iTunes

1 сезон

1

iTunes

iTunes

iTunes

1 сезон

RePack

30

ИГРА 18+

pack

ВАЖНО

!!Акция!!

Alien_RageХит недели

RePack

MK11
pack

Забери бонус

RePack

jed

!!Акция!!

Alien_Rage

RePack

fifa19

RePack

Assassins Creed: Odyssey

RePack

NEED FOR SPEED™ PAYBACK

4 сезон

9 сезон

Бесстыжие 9 сезон

Все сериалы

все сериалы на PB.wtf

RePack

FAR CRY 5
  

Спектр / Демон внутри / Espectro / Demon Inside (Альфонсо Пинеда Ульоа / Alfonso Pineda Ulloa) [2013, Мексика, ужасы, триллер, HDRip, Любительский (одноголосый) [den904] pb.wtf

Спектр через торрент pb.wtf

Размер: 1.41 GB | Добавлен: 5 лет 9 мес. назад | Торрент скачан:150 раз
Скачать  

11-01-2015 03:33 Спектр Скачать торрент  

Спектр / Демон внутри / Espectro / Demon Inside
«Agoraphobic woman is trapped in her apartment by her own demons»


  • Год выпуска: 2013
  • Страна: Мексика
  • Жанр: ужасы, триллер
  • Продолжительность: 01:32:13
  • Перевод: Любительский (одноголосый) [den904] - переведено при содействии [Flammentod]

  • Режиссер: Альфонсо Пинеда Ульоа / Alfonso Pineda Ulloa
  • В ролях:

    Альфонсо Эррера (Mario), Гала Монтес (Marta Chica), Джоанна Мурильо, Арнульфо Рейес Санчес (Repartidor), Марко Тревио (Doctor), Марко Антонио Тревиньо (Doctor), Антонио де ла Вега, Пас Вега, Майя Сапата

  • Описание:
    Женщина, обладающая даром ясновидения и страдающая агорафобией (боязнь открытого пространства), отягченной манией преследования, запирается в своей квартире... Дни одиночества сменяются днями отчаяния, и вот, она вынуждена столкнуться лицом к лицу со своими самыми страшными кошмарами и понять, реальны ли они или являются плодом ее воображения...
  • Рейтинг:



  • Качество: HDRip
  • Формат: :AVI
  • Видео кодек: XviD
  • Аудио кодек: AC3
  • Видео: 720x304 (2.35:1), 1736 kbps, 23,976 fps, 0,331 bpp
  • Аудио: 5.1 / 48 kHz / 448 kbps / 16 bit
  • Релиз от: GEKADOL

    Код:

    General
    Complete name                            : I:\Espectro.2013.HDRip.CINEMANIA.avi
    Format                                   : AVI
    Format/Info                              : Audio Video Interleave
    File size                                : 1.41 GiB
    Duration                                 : 1h 32mn
    Overall bit rate                         : 2 194 Kbps
    Writing application                      : VirtualDubMod 1.5.10.2 (build 2542/release)
    Writing library                          : VirtualDubMod build 2542/release

    Video
    ID                                       : 0
    Format                                   : MPEG-4 Visual
    Format profile                           : Advanced Simple@L5
    Format settings, BVOP                    : 2
    Format settings, QPel                    : No
    Format settings, GMC                     : No warppoints
    Format settings, Matrix                  : Default (H.263)
    Muxing mode                              : Packed bitstream
    Codec ID                                 : XVID
    Codec ID/Hint                            : XviD
    Duration                                 : 1h 32mn
    Bit rate                                 : 1 737 Kbps
    Width                                    : 720 pixels
    Height                                   : 304 pixels
    Display aspect ratio                     : 2.35:1
    Frame rate                               : 23.976 fps
    Color space                              : YUV
    Chroma subsampling                       : 4:2:0
    Bit depth                                : 8 bits
    Scan type                                : Progressive
    Compression mode                         : Lossy
    Bits/(Pixel*Frame)                       : 0.331
    Stream size                              : 1.12 GiB (79%)
    Writing library                          : XviD 1.2.1 (UTC 2008-12-04)

    Audio
    ID                                       : 1
    Format                                   : AC-3
    Format/Info                              : Audio Coding 3
    Mode extension                           : CM (complete main)
    Codec ID                                 : 2000
    Duration                                 : 1h 32mn
    Bit rate mode                            : Constant
    Bit rate                                 : 448 Kbps
    Channel(s)                               : 6 channels
    Channel positions                        : Front: L C R, Side: L R, LFE
    Sampling rate                            : 48.0 KHz
    Bit depth                                : 16 bits
    Compression mode                         : Lossy
    Stream size                              : 296 MiB (20%)
    Alignment                                : Split accross interleaves
    Interleave, duration                     : 42 ms (1.00 video frame)
    Interleave, preload duration             : 500 ms


    Скриншоты:



    pb.wtf



  • Скачать Спектр через торрент http://i67.fastpic.ru/big/2015/0111/d0/d66d772703198228289a1b23b0e96ad0.jpg Скачать фильм Спектр через торрент бесплантно в хорошем качестве Описание: Женщина, обладающая даром ясновидения и страдающая агорафобией (боязнь открытого пространства), отягченной манией преследования, ... 10 10 7
    Торрент: Зарегистрирован [2015-01-11 03:33] · скачан: 150 раз
    Статус: √ проверено
    Размер: 1.41 GB
    Как cкачать? Как скачать Спектр через торрент | qTorrent

    28-11-2019 20:33  

    Отключить всю рекламу на сайте

      Дорогой пользователь! Огромная просьба, поблагодарите релизера, оцените раздачу и оставьте свои комментарий, если Вы скачали Спектр через торрент бесплатно! Внесите свою лепту в развитие PiratBit!
      Комментировать посты могут только пользователи прошедшие не сложную регистрацию
      Показать сообщения:    

      Спектр через торрент
      Скачать бесплатно Спектр
      Спектр скачать торрент
      Спектр смотреть онлайн
      Cкачать фильм Спектр бесплатно
      Спектр скачать торрент в хорошем качестве
      Спектр смотреть онлайн бесплатно в хорошем качестве


      Вы не можете начинать темы
      Вы не можете отвечать на сообщения
      Вы не можете редактировать свои сообщения
      Вы не можете удалять свои сообщения
      Вы не можете голосовать в опросах
      Вы не можете прикреплять файлы к сообщениям
      Вы можете скачивать файлы