Ссылка на приватное зеркало нашего сайта всего за 1$. Внимание количество ограничено!!!

2 сезон

iTunes

1 сезон

1

2 сезон

2 сезон

iTunes

1 сезон

RePack

30

Ultimate

ВАЖНО

ИГРА 18+

pack

RePack

MK11
pack

Забери бонус

RePack

jed

!!Акция!!

Alien_Rage

RePack

fifa19

RePack

Assassins Creed: Odyssey

RePack

NEED FOR SPEED™ PAYBACK

4 сезон

9 сезон

Бесстыжие 9 сезон

Все сериалы

все сериалы на PB.wtf

RePack

FAR CRY 5
  

Попал под раздачу / Catch Hell (Райан Филипп ) [2014, триллер, драма, BDRip 1080p] VO pb.wtf

Попал под раздачу через торрент pb.wtf

Размер: 8.92 GB | Добавлен: 5 лет 10 мес. назад | Торрент скачан:20 раз
Скачать  

12-01-2015 07:38 Попал под раздачу Скачать торрент  


Попал под раздачу / Catch Hell


Год выпуска: 2014
Страна:США
Жанр:триллер, драма
Продолжительность: 01:37:10
Перевод:Любительский (одноголосый) [den904]
Субтитры: Английские
Режиссер:Райан Филипп
В ролях:

Райан Филипп (Reagan Pearce), Тиг Нотаро (Careen), Джеймс ДюМонт (Tony Cunningham), Джойфул Дрейк (Diane), Стивен Луис Граш (Junior), Хаким Коллендер (Hotel Security Guard), Рамона Тайлер (The Stewardess), Расс Руссо (Tim Remmit), Йен Барфорд (Mike), Хайди Брук Майерс (Rhonda), Форрест Форте (David), Скиппер Ландри (Bartender)
  • Описание:
    Голливудский актер Ригон Пирс похищен бандитами по пути на работу в Шривпорте, штат Луизиана. Похитители пытают и шантажируют его, взламывают его аккаунт в Твиттере и угрожают выложить в сеть компрометирующие материалы...


    Качество: BDRip (1080p)
    Формат:MKV
    Видео кодек: AVC
    Аудио кодек:AC3,DTS
    Видео: 12000 Кбит/с, 1920x1080, 23,976 fps
    Аудио: Русский (AC3, 6 ch, 384 Кбит/с)
    Аудио2: английский (DTS, 6 ch, 768 Кбит/с)

    Код:

    General
    Catch.Hell.2014.Blu.Ray.1080p.CINEMANIA.mkv
    Format : Matroska
    Format version : Version 4 / Version 2
    File size : 8.92 GiB
    Duration : 1h 37mn
    Overall bit rate : 13.1 Mbps
    Movie name : Release Group CINEMANIA
    Encoded date : UTC 2015-01-09 20:02:27
    Writing application : mkvmerge v7.5.0 ('Glass Culture') 64bit built on Jan 4 2015 16:48:44
    Writing library : libebml v1.3.1 + libmatroska v1.4.2

    Video
    ID : 1
    Format : AVC
    Format/Info : Advanced Video Codec
    Format profile : High@L4.1
    Format settings, CABAC : Yes
    Format settings, ReFrames : 4 frames
    Codec ID : V_MPEG4/ISO/AVC
    Duration : 1h 37mn
    Bit rate : 12.0 Mbps
    Width : 1 920 pixels
    Height : 1 080 pixels
    Display aspect ratio : 16:9
    Frame rate mode : Constant
    Frame rate : 23.976 fps
    Color space : YUV
    Chroma subsampling : 4:2:0
    Bit depth : 8 bits
    Scan type : Progressive
    Bits/(Pixel*Frame) : 0.241
    Stream size : 7.96 GiB (89%)
    Title : Release Group CINEMANIA
    Writing library : x264 core 130 r2273 b3065e6
    Encoding settings : cabac=1 / ref=1 / deblock=1:0:0 / analyse=0x3:0x113 / me=hex / subme=2 / psy=1 / psy_rd=1.00:0.00 / mixed_ref=0 / me_range=16 / chroma_me=1 / trellis=0 / 8x8dct=1 / cqm=0 / deadzone=21,11 / fast_pskip=1 / chroma_qp_offset=0 / threads=6 / lookahead_threads=2 / sliced_threads=0 / nr=0 / decimate=1 / interlaced=0 / bluray_compat=0 / constrained_intra=0 / bframes=3 / b_pyramid=2 / b_adapt=1 / b_bias=0 / direct=1 / weightb=1 / open_gop=0 / weightp=1 / keyint=240 / keyint_min=24 / scenecut=40 / intra_refresh=0 / rc_lookahead=10 / rc=abr / mbtree=1 / bitrate=12000 / ratetol=1.0 / qcomp=0.60 / qpmin=0 / qpmax=69 / qpstep=4 / vbv_maxrate=62500 / vbv_bufsize=78125 / nal_hrd=none / ip_ratio=1.40 / aq=1:1.00
    Language : English
    Default : Yes
    Forced : No
    Color primaries : BT.709
    Transfer characteristics : BT.709
    Matrix coefficients : BT.709

    Audio #1
    ID : 2
    Format : AC-3
    Format/Info : Audio Coding 3
    Mode extension : CM (complete main)
    Format settings, Endianness : Big
    Codec ID : A_AC3
    Duration : 1h 37mn
    Bit rate mode : Constant
    Bit rate : 384 Kbps
    Channel(s) : 6 channels
    Channel positions : Front: L C R, Side: L R, LFE
    Sampling rate : 48.0 KHz
    Bit depth : 16 bits
    Compression mode : Lossy
    Stream size : 267 MiB (3%)
    Title : den904
    Language : Russian
    Default : Yes
    Forced : Yes

    Audio #2
    ID : 3
    Format : DTS
    Format/Info : Digital Theater Systems
    Mode : 16
    Format settings, Endianness : Big
    Codec ID : A_DTS
    Duration : 1h 37mn
    Bit rate mode : Constant
    Bit rate : 768 Kbps
    Channel(s) : 6 channels
    Channel positions : Front: L C R, Side: L R, LFE
    Sampling rate : 48.0 KHz
    Bit depth : 24 bits
    Compression mode : Lossy
    Stream size : 534 MiB (6%)
    Language : English
    Default : No
    Forced : No

    Text #1
    ID : 5
    Format : UTF-8
    Codec ID : S_TEXT/UTF8
    Codec ID/Info : UTF-8 Plain Text
    Language : English
    Default : No
    Forced : No

    Menu
    00:00:00.000 : en:Chapter 01
    00:11:10.002 : en:Chapter 02
    00:20:53.043 : en:Chapter 03
    00:33:06.025 : en:Chapter 04
    00:43:56.008 : en:Chapter 05
    00:50:56.011 : en:Chapter 06
    00:57:30.947 : en:Chapter 07
    01:06:18.933 : en:Chapter 08
    01:16:36.925 : en:Chapter 09
    01:23:07.899 : en:Chapter 10
    01:29:11.888 : en:Chapter 11
    01:33:34.942 : en:Chapter 12


    Скриншоты:

    Каталог Новинок (Фильмы-трейлеры, Игры, Сериалы, Мультфильмы)

    © Оформление by Ворон
    pb.wtf



  • Скачать Попал под раздачу через торрент http://pic.kartinco.top/images/6/ordi9.jpg Скачать фильм Попал под раздачу через торрент бесплантно в хорошем качестве Описание:Голливудский актер Ригон Пирс похищен бандитами по пути на работу в Шривпорте, штат Луизиана. Похитители пытают и шантажируют его, ... 5.5 10 2
    Торрент: Зарегистрирован [2015-01-12 07:38] · скачан: 20 раз
    Статус: T временная
    Размер: 8.92 GB
    Как cкачать? Как скачать Попал под раздачу через торрент | qTorrent

    28-11-2019 20:33  

    Отключить всю рекламу на сайте

    12-01-2015 08:13 Попал под раздачу Скачать торрент  

    взламывают его аккаунт в Твиттере rofl ждем русский ремейк про вконтакт
    За раздачу спасибо pb.wtf



      Дорогой пользователь! Огромная просьба, поблагодарите релизера, оцените раздачу и оставьте свои комментарий, если Вы скачали Попал под раздачу через торрент бесплатно! Внесите свою лепту в развитие PiratBit!
      Комментировать посты могут только пользователи прошедшие не сложную регистрацию
      Показать сообщения:    

      Попал под раздачу через торрент
      Скачать бесплатно Попал под раздачу
      Попал под раздачу скачать торрент
      Попал под раздачу смотреть онлайн
      Cкачать фильм Попал под раздачу бесплатно
      Попал под раздачу скачать торрент в хорошем качестве
      Попал под раздачу смотреть онлайн бесплатно в хорошем качестве


      Вы не можете начинать темы
      Вы не можете отвечать на сообщения
      Вы не можете редактировать свои сообщения
      Вы не можете удалять свои сообщения
      Вы не можете голосовать в опросах
      Вы не можете прикреплять файлы к сообщениям
      Вы можете скачивать файлы