2 сезон

iTunes

MVO

1

2 сезон

iTunes

iTunes

1 сезон

RePack

30

Новинка

ВАЖНО

ИГРА 18+

pack

RePack

MK11
pack

Легкие деньги

RePack

jed

RePack

fifa19

RePack

RDR2

RePack

NEED FOR SPEED™ PAYBACK

4 сезон

9 сезон

Бесстыжие 9 сезон

Все сериалы

все сериалы на PB.wtf

RePack

FAR CRY 5

Anonymous, добрый вечер, мы не успеваем собрать деньги на оплату серверов за декабрь и январь, помогите нам пожалуйста в это трудное время. В качестве благодарности мы отключим Вам всю рекламу на сайте (укажите свой ник в строку Ваше имя)!

×
  
Magnet ссылка

Батарейки не прилагаются / *batteries not included (Мэттью Роббинс) [1987, фантастика, фэнтези, драма, комедия, семейный, HDTVRip 720p / 60 fps] MVO, DVO, AVO pb.wtf

Батарейки не прилагаются через торрент pb.wtf

Размер: 3.47 GB | Добавлен: 6 лет назад | Торрент скачан:225 раз
Скачать  

12-01-2015 17:56 Батарейки не прилагаются Скачать торрент  

Информация о фильме
Русское название: Батарейки в комплект не входят / Батарейки не прилагаются
Оригинальное название: *batteries not included
Год выхода: 1987
Жанр: фантастика, фэнтези, драма, комедия, семейный
Режиссер: Мэттью Роббинс
Выпущено: США
Продолжительность: 01:46:21
Перевод: Профессиональный (Двухголосый закадровый), Профессиональный (Многоголосый закадровый), Авторский (А.Михалёв)
В ролях: Хьюм Кронин, Джессика Тэнди, Фрэнк МакРей, Элизабет Пенья, Майкл Кармине, Дэннис Бутсикарис, Том Элдридж, Джейн Хоффман, Джон Панкоу




Сюжет фильма
Дом, в котором живут наши герои, подлежит сносу, и горстка домочадцев — пожилая семейная пара Райли, бывший боксер Гарри, молодая пуэрториканка Мариса и художник Мэйсон — отчаянно борются за спасение милых сердцу трущоб.
Беднягам остается надеятся только на чудо, и оно случается: помощь приходит от братьев по разуму. Однажды ночью квартиру Райли посещают неожиданные гости — крохотные НЛО.
Эта добрая и сентиментальная история о межгалактической взаимовыручке и дружбе от легендарного продюсера "Инопланетянина" Стивена Спилберга и сценариста "Зубастиков 2" Мика Гарриса - прекрасный подарок для всей семьи.




Файл
Качество: HDTVRip 720p
Видео: 1280x720, 3470 Кбит/сек, 59.940 кадр/сек, AVC, x264, High@L4.1, 16:9, 0.060 Бит/[Пиксели*Кадры]
Аудио 1: AC-3, 192 Кбит/сек, 2 канала(ов), 48,0 КГц - Двухголосый закадровый, СТС / Русский
Аудио 2: AC-3, 192 Кбит/сек, 2 канала(ов), 48,0 КГц - Многоголосый закадровый, ОРТ / Русский
Аудио 3: AC-3, 192 Кбит/сек, 2 канала(ов), 48,0 КГц - Многоголосый закадровый, HDкино / Русский
Аудио 4: AC-3, 192 Кбит/сек, 2 канала(ов), 48,0 КГц - Двухголосый закадровый, R5 / Русский
Аудио 5: AC-3, 128 Кбит/сек, 2 канала(ов), 48,0 КГц - Одноголосый закадровый, А. Михалёв / Русский
Аудио 6: AC-3, 384 Кбит/сек, 6 канала(ов), 48,0 КГц - Оригинал / Английский
Субтитры: Русские | Полные, Английские | Полные
Форсированные субтитры: Нет
Чаптеры (Главы): Нет[/ul]



Автор Рипа: Сообщество:
Format : Matroska
Format version : Version 2
File size : 3.47 GiB
Duration : 1h 46mn
Overall bit rate : 4 674 Kbps
Movie name : Батарейки не прилагаются.(1987).HDTVRip.720p.[envy].[60fps]
Encoded date : UTC 2015-01-12 12:27:19
Writing application : mkvmerge v5.8.0 ('No Sleep / Pillow') built on Sep 2 2012 15:37:04
Writing library : libebml v1.2.3 + libmatroska v1.3.0

Video
ID : 1
Format : AVC
Format/Info : Advanced Video Codec
Format profile : High@L4.1
Format settings, CABAC : Yes
Format settings, ReFrames : 9 frames
Codec ID : V_MPEG4/ISO/AVC
Duration : 1h 46mn
Bit rate : 3 301 Kbps
Nominal bit rate : 3 470 Kbps
Width : 1 280 pixels
Height : 720 pixels
Display aspect ratio : 16:9
Frame rate mode : Constant
Frame rate : 59.880 fps
Original frame rate : 59.940 fps
Color space : YUV
Chroma subsampling : 4:2:0
Bit depth : 8 bits
Scan type : Progressive
Bits/(Pixel*Frame) : 0.060
Stream size : 2.45 GiB (71%)
Title : Батарейки не прилагаются.(1987).HDTVRip.720p.[envy].[60fps]
Writing library : x264 core 130 r2273 b3065e6
Encoding settings : cabac=1 / ref=9 / deblock=1:0:0 / analyse=0x3:0x133 / me=umh / subme=9 / psy=1 / psy_rd=1.00:0.00 / mixed_ref=1 / me_range=28 / chroma_me=1 / trellis=2 / 8x8dct=1 / cqm=0 / deadzone=21,11 / fast_pskip=0 / chroma_qp_offset=-2 / threads=12 / lookahead_threads=1 / sliced_threads=0 / nr=0 / decimate=1 / interlaced=0 / bluray_compat=0 / constrained_intra=0 / bframes=5 / b_pyramid=2 / b_adapt=2 / b_bias=0 / direct=3 / weightb=1 / open_gop=0 / weightp=2 / keyint=250 / keyint_min=25 / scenecut=40 / intra_refresh=0 / rc=2pass / mbtree=0 / bitrate=3470 / ratetol=1.0 / qcomp=0.60 / qpmin=0 / qpmax=69 / qpstep=4 / cplxblur=20.0 / qblur=0.5 / ip_ratio=1.40 / pb_ratio=1.30 / aq=2:0.70
Language : English
Default : Yes
Forced : No

Audio #1
ID : 2
Format : AC-3
Format/Info : Audio Coding 3
Mode extension : CM (complete main)
Format settings, Endianness : Big
Codec ID : A_AC3
Duration : 1h 46mn
Bit rate mode : Constant
Bit rate : 192 Kbps
Channel(s) : 2 channels
Channel positions : Front: L R
Sampling rate : 48.0 KHz
Bit depth : 16 bits
Compression mode : Lossy
Delay relative to video : 20ms
Stream size : 146 MiB (4%)
Title : DVO STS
Language : Russian
Default : Yes
Forced : No

Audio #2
ID : 3
Format : AC-3
Format/Info : Audio Coding 3
Mode extension : CM (complete main)
Format settings, Endianness : Big
Codec ID : A_AC3
Duration : 1h 46mn
Bit rate mode : Constant
Bit rate : 192 Kbps
Channel(s) : 2 channels
Channel positions : Front: L R
Sampling rate : 48.0 KHz
Bit depth : 16 bits
Compression mode : Lossy
Delay relative to video : 20ms
Stream size : 146 MiB (4%)
Title : MVO ORT
Language : Russian
Default : No
Forced : No

Audio #3
ID : 4
Format : AC-3
Format/Info : Audio Coding 3
Mode extension : CM (complete main)
Format settings, Endianness : Big
Codec ID : A_AC3
Duration : 1h 46mn
Bit rate mode : Constant
Bit rate : 192 Kbps
Channel(s) : 2 channels
Channel positions : Front: L R
Sampling rate : 48.0 KHz
Bit depth : 16 bits
Compression mode : Lossy
Delay relative to video : 20ms
Stream size : 146 MiB (4%)
Title : MVO HDkino
Language : Russian
Default : No
Forced : No

Audio #4
ID : 5
Format : AC-3
Format/Info : Audio Coding 3
Mode extension : CM (complete main)
Format settings, Endianness : Big
Codec ID : A_AC3
Duration : 1h 46mn
Bit rate mode : Constant
Bit rate : 192 Kbps
Channel(s) : 2 channels
Channel positions : Front: L R
Sampling rate : 48.0 KHz
Bit depth : 16 bits
Compression mode : Lossy
Stream size : 146 MiB (4%)
Title : DVO R5
Language : Russian
Default : No
Forced : No

Audio #5
ID : 6
Format : AC-3
Format/Info : Audio Coding 3
Mode extension : CM (complete main)
Format settings, Endianness : Big
Codec ID : A_AC3
Duration : 1h 46mn
Bit rate mode : Constant
Bit rate : 128 Kbps
Channel(s) : 2 channels
Channel positions : Front: L R
Sampling rate : 48.0 KHz
Bit depth : 16 bits
Compression mode : Lossy
Stream size : 97.4 MiB (3%)
Title : Mihalev
Language : Russian
Default : No
Forced : No

Audio #6
ID : 7
Format : AC-3
Format/Info : Audio Coding 3
Mode extension : CM (complete main)
Format settings, Endianness : Big
Codec ID : A_AC3
Duration : 1h 46mn
Bit rate mode : Constant
Bit rate : 384 Kbps
Channel(s) : 6 channels
Channel positions : Front: L C R, Side: L R, LFE
Sampling rate : 48.0 KHz
Bit depth : 16 bits
Compression mode : Lossy
Stream size : 292 MiB (8%)
Title : Eng
Language : English
Default : No
Forced : No

Text #1
ID : 8
Format : UTF-8
Codec ID : S_TEXT/UTF8
Codec ID/Info : UTF-8 Plain Text
Title : full
Language : Russian
Default : No
Forced : No

Text #2
ID : 9
Format : UTF-8
Codec ID : S_TEXT/UTF8
Codec ID/Info : UTF-8 Plain Text
Title : full
Language : English
Default : No
Forced : No

pb.wtf



Скачать Батарейки не прилагаются через торрент http://i66.fastpic.ru/big/2015/0112/17/61ba49b8d6657ae4cee63c194e0f1117.png Скачать фильм Батарейки не прилагаются через торрент бесплантно в хорошем качестве В ролях: Хьюм Кронин, Джессика Тэнди, Фрэнк МакРей, Элизабет Пенья, Майкл Кармине, Дэннис Бутсикарис, Том Элдридж, Джейн Хоффман, Джон ... 10 10 17
Info! Серебряная раздача, засчитывается только 50% скачанного.
Торрент: Зарегистрирован [2015-01-12 17:56] · скачан: 225 раз
Статус: √ проверено
Размер: 3.47 GB
Как cкачать? Как скачать Батарейки не прилагаются через торрент | UTorrent



Последний раз редактировалось: еnvy (2015-01-12 18:46), всего редактировалось 1 раз

28-11-2019 20:33  

Отключить всю рекламу на сайте

12-01-2015 17:56 Батарейки не прилагаются Скачать торрент  

В фильмах с добавленными кадрами больше не буду описывать ход работы и что было сделано для улучшения, так же не отвечаю на вопросы по поводу кодинга видео.
Так как много заумных пользователей которых просто противно читать из за их "всезнания"..

Надеюсь поймете.
С Уважением envypb.wtf



12-01-2015 22:15 Батарейки не прилагаются Скачать торрент  

Спасибо за фильм, но 60 fps для меня непривычно...pb.wtf



13-01-2015 18:28 Батарейки не прилагаются Скачать торрент  

еnvy писал(а):

В фильмах с добавленными кадрами больше не буду описывать ход работы и что было сделано для улучшения...

неужели ты меня послушал winkpb.wtf



14-01-2015 09:46 Батарейки не прилагаются Скачать торрент  

mimok, Это так же в минус для тех кто тоже занимается добавлением кадров...
Так как постоянно используете один и тот же метод... А их много, и их можно группировать. wink

Ну да пофигу... ))))
"Жираф большой, ему видней"!pb.wtf



14-01-2015 15:45 Батарейки не прилагаются Скачать торрент  

еnvy писал(а):

mimok, Это так же в минус для тех кто тоже занимается добавлением кадров...
Так как постоянно используете один и тот же метод... А их много, и их можно группировать. wink

Тот кто занимается,если нужно,сам спросит у автора.pb.wtf



14-01-2015 20:23 Батарейки не прилагаются Скачать торрент  

Ну не всегда, есть и те кто будет пупок надрывать и толку никакого. )))pb.wtf



    Дорогой пользователь! Огромная просьба, поблагодарите релизера, оцените раздачу и оставьте свои комментарий, если Вы скачали Батарейки не прилагаются через торрент бесплатно! Внесите свою лепту в развитие PiratBit!
    Комментировать посты могут только пользователи прошедшие не сложную регистрацию
    Показать сообщения:    

    Батарейки не прилагаются через торрент
    Скачать бесплатно Батарейки не прилагаются
    Батарейки не прилагаются скачать торрент
    Батарейки не прилагаются смотреть онлайн
    Cкачать фильм Батарейки не прилагаются бесплатно
    Батарейки не прилагаются скачать торрент в хорошем качестве
    Батарейки не прилагаются смотреть онлайн бесплатно в хорошем качестве


    Вы не можете начинать темы
    Вы не можете отвечать на сообщения
    Вы не можете редактировать свои сообщения
    Вы не можете удалять свои сообщения
    Вы не можете голосовать в опросах
    Вы не можете прикреплять файлы к сообщениям
    Вы можете скачивать файлы