2 сезон

iTunes

1 сезон

1

iTunes

iTunes

iTunes

1 сезон

RePack

30

ИГРА 18+

pack

ВАЖНО

!!Акция!!

Alien_RageХит недели

RePack

MK11
pack

Забери бонус

RePack

jed

!!Акция!!

Alien_Rage

RePack

fifa19

RePack

Assassins Creed: Odyssey

RePack

NEED FOR SPEED™ PAYBACK

4 сезон

9 сезон

Бесстыжие 9 сезон

Все сериалы

все сериалы на PB.wtf

RePack

FAR CRY 5
  

Медовый месяц / Honeymoon (Ли Джаньяк / Leigh Janiak) [2013, США, ужасы, HDRip, Любительский (одноголосый)] pb.wtf

Медовый месяц через торрент pb.wtf

Размер: 1.46 GB | Добавлен: 5 лет 9 мес. назад | Торрент скачан:125 раз
Скачать  

13-01-2015 00:43 Медовый месяц Скачать торрент  

Медовый месяц / Honeymoon«After the ceremony comes the ritual»
Год выпуска: 2013
Страна: США
Жанр: ужасы
Продолжительность: 01:27:28
Перевод: Любительский (одноголосый)
Субтитры: Отсутствует
Режиссер: Ли Джаньяк / Leigh Janiak
В ролях:


Роуз Лесли (Bea), Гарри Тредэвэй (Paul), Бен Хубер (Will), Ханна Браун (Annie), Генри Лоуренс (в титрах не указан)

Описание:
Молодожёны Пол и Би отправляются в удалённое местечко у озера, чтобы провести там медовый месяц. Вскоре после прибытия Пол находит Би блуждающей посреди ночи в лесу. И по мере того, как она становится всё более отчуждённой, Пол начинает подозревать, что это был не просто лунатизм и в лесу произошло что-то ужасное...

Рейтинг:

MPAA: R - Лицам до 17 лет обязательно присутствие взрослого
Качество: HDRip
Формат: AVI
Видео кодек:XviD
Аудио кодек:AC3
Видео: XviD, 720x384 (1.875), 2002 kbps, 23,976 fps, 0,302 bpp
Аудио: AC3 / 5.1 / 48 kHz / 384 kbps / 16 bit - Любительский (одноголосый) - [R.A.I.M]

General
Complete name : D:\Users\_KaisiK_\uTorrent\Med0vyj.mes9c.2014.L1.HDRip.1.46GB.avi
Format : AVI
Format/Info : Audio Video Interleave
File size : 1.46 GiB
Duration : 1h 27mn
Overall bit rate : 2 396 Kbps
Writing application : VirtualDubMod 1.5.10.2 (build 2540/release)
Writing library : VirtualDubMod build 2540/release

Video
ID : 0
Format : MPEG-4 Visual
Format profile : Advanced Simple@L5
Format settings, BVOP : 2
Format settings, QPel : No
Format settings, GMC : No warppoints
Format settings, Matrix : Default (MPEG)
Codec ID : XVID
Codec ID/Hint : XviD
Duration : 1h 27mn
Bit rate : 2 003 Kbps
Width : 720 pixels
Height : 384 pixels
Display aspect ratio : 1.875
Frame rate : 23.976 fps
Color space : YUV
Chroma subsampling : 4:2:0
Bit depth : 8 bits
Scan type : Progressive
Compression mode : Lossy
Bits/(Pixel*Frame) : 0.302
Stream size : 1.22 GiB (84%)
Writing library : XviD 1.2.1 (UTC 2008-12-04)

Audio
ID : 1
Format : AC-3
Format/Info : Audio Coding 3
Mode extension : CM (complete main)
Codec ID : 2000
Duration : 1h 27mn
Bit rate mode : Constant
Bit rate : 384 Kbps
Channel(s) : 6 channels
Channel positions : Front: L C R, Side: L R, LFE
Sampling rate : 48.0 KHz
Bit depth : 16 bits
Compression mode : Lossy
Stream size : 240 MiB (16%)
Alignment : Split accross interleaves
Interleave, duration : 42 ms (1.00 video frame)
Interleave, preload duration : 500 ms

[/code]
pb.wtf



Скачать Медовый месяц через торрент http://i67.fastpic.ru/big/2015/0113/4b/23923b54544e62701abe45ca9a7c044b.png Скачать фильм Медовый месяц через торрент бесплантно в хорошем качестве Описание: Молодожёны Пол и Би отправляются в удалённое местечко у озера, чтобы провести там медовый месяц. Вскоре после прибытия Пол ... 10 10 4
Торрент: Зарегистрирован [2015-01-13 00:43] · скачан: 125 раз
Статус: T временная
Размер: 1.46 GB
Как cкачать? Как скачать Медовый месяц через торрент | qTorrent

% Раздел Тема Автор DL S | L
Фильмы до 2000 г. [ 1.45 GB ] Медовый месяц в Лас-Вегасе / Honeymoon in Vegas [1992 HDRip ] bober100 Скачать
1 | 0
T Фильмы (Blu-ray, BD-Remux, HDDVD) [ 16.6 GB ] Медовый месяц / Honeymoon [2014 BDRemux VO] Ворон Скачать
1 | 0
T Фильмы 2014 (Звук TS, Cam, VO, DVO) [ 1.37 GB ] Медовый месяц / Honeymoon [2014 HDTVRip Любительский одноголосый] кэп Скачать
1 | 0
Фильмы без перевода [ 698 MB ] Медовый месяц / Honeymoon [2014 HDRip Eng + SubEng] makarevich Скачать
1 | 0
Классика зарубежного кино [ 795 MB ] Машина медового месяца / The Honeymoon Machine [1961 DVDRip] [Remastered] [AVO] killermax2013 Скачать
1 | 0
Фильмы 2010 [ 1.4 GB ] Смертельный медовый месяц / Deadly Honeymoon [2010 HDTVRip] Anonymous Скачать
1 | 0
Порно фильмы с сюжетом [ 1.36 GB ] Honeymoon / Медовый месяц [2011 Feature DVDRip] Shmel Скачать
1 | 0

28-11-2019 20:33  

Отключить всю рекламу на сайте

14-01-2015 20:32 Медовый месяц Скачать торрент  

Она вернулась, что бы отомстить Джону Сноу sarcasticpb.wtf



    Дорогой пользователь! Огромная просьба, поблагодарите релизера, оцените раздачу и оставьте свои комментарий, если Вы скачали Медовый месяц через торрент бесплатно! Внесите свою лепту в развитие PiratBit!
    Комментировать посты могут только пользователи прошедшие не сложную регистрацию
    Показать сообщения:    

    Медовый месяц через торрент
    Скачать бесплатно Медовый месяц
    Медовый месяц скачать торрент
    Медовый месяц смотреть онлайн
    Cкачать фильм Медовый месяц бесплатно
    Медовый месяц скачать торрент в хорошем качестве
    Медовый месяц смотреть онлайн бесплатно в хорошем качестве


    Вы не можете начинать темы
    Вы не можете отвечать на сообщения
    Вы не можете редактировать свои сообщения
    Вы не можете удалять свои сообщения
    Вы не можете голосовать в опросах
    Вы не можете прикреплять файлы к сообщениям
    Вы можете скачивать файлы