Ссылка на приватное зеркало нашего сайта всего за 1$. Внимание количество ограничено!!!

2 сезон

iTunes

1 сезон

1

iTunes

iTunes

iTunes

1 сезон

RePack

30

ИГРА 18+

pack

ВАЖНО

!!Акция!!

Alien_RageХит недели

RePack

MK11
pack

Забери бонус

RePack

jed

!!Акция!!

Alien_Rage

RePack

fifa19

RePack

Assassins Creed: Odyssey

RePack

NEED FOR SPEED™ PAYBACK

4 сезон

9 сезон

Бесстыжие 9 сезон

Все сериалы

все сериалы на PB.wtf

RePack

FAR CRY 5
  

Матадор / Matador (Педро Альмодовар) [1986, триллер, драма, детектив, BDRip 720p] AVO pb.wtf

Матадор через торрент pb.wtf

Размер: 3.68 GB | Добавлен: 5 лет 9 мес. назад | Торрент скачан:26 раз
Скачать  

13-01-2015 06:53 Матадор Скачать торрент  

Матадор / Matador

Год выпуска: 1986
Страна: Испания
Жанр: триллер, драма, детектив
Продолжительность: 01:46:33
Перевод: авторский
Субтитры: русские

Режиссёр: Педро Альмодовар

В ролях: Ассумпта Серна, Антонио Бандерас, Начо Мартинес, Ева Кобо, Хульета Серрано, Чус Лампреаве, Кармен Маура, Эусебио Понсела, Бибиана Фернандес, Луис Сихес

Описание: Матадор Диего жестоко ранен быком и более не имеет возможности убивать на арене…



Качество: BDRip 720p Сравнение с исходником
Формат: MKV
Видео кодек: H.264
Аудио кодек: AC3
Видео: 4458 Кбит/с, 1280x694, 24 кадра/с, 0.209 bpp
Аудио 1: русский, AC3, 192 kbps, 2 ch, 48 kHz [авторский, Антон Алексеев]
Аудио 2: испанский, AC3, 192 kbps, 2 ch, 48 kHz [оригинал]

Имеются неименованные главы/чаптеры.
Гойя, 1987 год
Номинации (1):
Лучшая мужская роль второго плана (Антонио Бандерас)
Общее
Уникальный идентификатор : 188621626810184859163426573244689338438 (0x8DE7343450DD4CA1A09362C4FFF0D046)
Полное имя : D:VideoMatador.1986.BDRip.720p.mkv
Формат : Matroska
Версия формата : Version 4 / Version 2
Размер файла : 3,68 Гбайт
Продолжительность : 1 ч. 46 м.
Общий поток : 4940 Кбит/сек
Дата кодирования : UTC 2015-01-13 04:09:50
Программа кодирования : mkvmerge v7.5.0 ('Glass Culture') 64bit built on Jan 4 2015 16:48:44
Библиотека кодирования : libebml v1.3.1 + libmatroska v1.4.2
DURATION : 01:43:37.958000000
NUMBER_OF_FRAMES : 1157
NUMBER_OF_BYTES : 60737
_STATISTICS_WRITING_APP : mkvmerge v7.5.0 ('Glass Culture') 64bit built on Jan 4 2015 16:48:44
_STATISTICS_WRITING_DATE_UTC : 2015-01-13 04:09:50
_STATISTICS_TAGS : BPS DURATION NUMBER_OF_FRAMES NUMBER_OF_BYTES

Видео
Идентификатор : 1
Формат : AVC
Формат/Информация : Advanced Video Codec
Профиль формата : High@L4.1
Параметр CABAC формата : Да
Параметр ReFrames формата : 9 кадров
Идентификатор кодека : V_MPEG4/ISO/AVC
Продолжительность : 1 ч. 46 м.
Битрейт : 4458 Кбит/сек
Ширина : 1280 пикселей
Высота : 694 пикселя
Соотношение сторон : 1,85:1
Режим частоты кадров : Постоянный
Частота кадров : 24,000 кадра/сек
Цветовое пространство : YUV
Субдискретизация насыщенности : 4:2:0
Битовая глубина : 8 бит
Тип развёртки : Прогрессивная
Бит/(Пиксели*Кадры) : 0.209
Размер потока : 3,32 Гбайт (90%)
Заголовок : BDRip -- STarankov
Библиотека кодирования : x264 core 142 r2431 ac76440
Настройки программы : cabac=1 / ref=9 / deblock=1:-1:-1 / analyse=0x3:0x113 / me=umh / subme=10 / psy=1 / psy_rd=1.00:0.15 / mixed_ref=1 / me_range=32 / chroma_me=1 / trellis=2 / 8x8dct=1 / cqm=0 / deadzone=21,11 / fast_pskip=1 / chroma_qp_offset=-3 / threads=6 / lookahead_threads=1 / sliced_threads=0 / nr=0 / decimate=1 / interlaced=0 / bluray_compat=0 / constrained_intra=0 / bframes=8 / b_pyramid=2 / b_adapt=2 / b_bias=0 / direct=3 / weightb=1 / open_gop=0 / weightp=2 / keyint=230 / keyint_min=23 / scenecut=40 / intra_refresh=0 / rc_lookahead=40 / rc=crf / mbtree=0 / crf=17.0 / qcomp=0.60 / qpmin=0 / qpmax=69 / qpstep=4 / vbv_maxrate=40000 / vbv_bufsize=50000 / crf_max=0.0 / nal_hrd=none / filler=0 / ip_ratio=1.40 / pb_ratio=1.30 / aq=1:1.00
Язык : Spanish
Default : Да
Forced : Нет
DURATION : 01:46:33.834000000
NUMBER_OF_FRAMES : 153452
NUMBER_OF_BYTES : 3639604394
_STATISTICS_WRITING_APP : mkvmerge v7.5.0 ('Glass Culture') 64bit built on Jan 4 2015 16:48:44
_STATISTICS_WRITING_DATE_UTC : 2015-01-13 04:09:50
_STATISTICS_TAGS : BPS DURATION NUMBER_OF_FRAMES NUMBER_OF_BYTES

Аудио #1
Идентификатор : 2
Формат : AC-3
Формат/Информация : Audio Coding 3
Расширение режима : CM (complete main)
Параметр Endianness формата : Big
Идентификатор кодека : A_AC3
Продолжительность : 1 ч. 46 м.
Вид битрейта : Постоянный
Битрейт : 192 Кбит/сек
Каналы : 2 канала
Расположение каналов : Front: L R
Частота : 48,0 КГц
Битовая глубина : 16 бит
Метод сжатия : С потерями
Размер потока : 146 Мбайт (4%)
Заголовок : AVO (Антон Алексеев)
Язык : Russian
Default : Да
Forced : Нет

Аудио #2
Идентификатор : 3
Формат : AC-3
Формат/Информация : Audio Coding 3
Расширение режима : CM (complete main)
Параметр Endianness формата : Big
Идентификатор кодека : A_AC3
Продолжительность : 1 ч. 46 м.
Вид битрейта : Постоянный
Битрейт : 192 Кбит/сек
Каналы : 2 канала
Расположение каналов : Front: L R
Частота : 48,0 КГц
Битовая глубина : 16 бит
Метод сжатия : С потерями
Размер потока : 146 Мбайт (4%)
Заголовок : Original
Язык : Spanish
Default : Нет
Forced : Нет

Текст
Идентификатор : 4
Формат : UTF-8
Идентификатор кодека : S_TEXT/UTF8
Идентификатор кодека/Информация : UTF-8 Plain Text
Заголовок : русский
Язык : Russian
Default : Нет
Forced : Нет

Меню
00:00:00.000 : :Chapter 01
00:10:27.500 : :Chapter 02
00:28:16.500 : :Chapter 03
00:40:50.000 : :Chapter 04
00:56:45.875 : :Chapter 05
01:07:28.500 : :Chapter 06
01:18:53.375 : :Chapter 07
01:31:31.958 : :Chapter 08
01:44:11.000 : :Chapter 09
01:46:33.750 : :Chapter 10
pb.wtf



Скачать Матадор через торрент http://i65.fastpic.ru/big/2015/0113/62/a1526d9288ffdd1d02da23786b737a62.jpg Скачать фильм Матадор через торрент бесплантно в хорошем качестве Описание: Матадор Диего жестоко ранен быком и более не имеет возможности убивать на арене… ... 7 10 3
Торрент: Зарегистрирован [2015-01-13 06:53] · скачан: 26 раз
Статус: √ проверено
Размер: 3.68 GB
Как cкачать? Как скачать Матадор через торрент | qTorrent

% Раздел Тема Автор DL S | L
Фильмы [HD 720p, 1080p] (Хороший звук DUB, MVO) [ 9.15 GB ] Матадор / Matador [1986 BDRip 1080p] AVO msltel Скачать
1 | 0

28-11-2019 20:33  

Отключить всю рекламу на сайте

    Дорогой пользователь! Огромная просьба, поблагодарите релизера, оцените раздачу и оставьте свои комментарий, если Вы скачали Матадор через торрент бесплатно! Внесите свою лепту в развитие PiratBit!
    Комментировать посты могут только пользователи прошедшие не сложную регистрацию
    Показать сообщения:    

    Матадор через торрент
    Скачать бесплатно Матадор
    Матадор скачать торрент
    Матадор смотреть онлайн
    Cкачать фильм Матадор бесплатно
    Матадор скачать торрент в хорошем качестве
    Матадор смотреть онлайн бесплатно в хорошем качестве


    Вы не можете начинать темы
    Вы не можете отвечать на сообщения
    Вы не можете редактировать свои сообщения
    Вы не можете удалять свои сообщения
    Вы не можете голосовать в опросах
    Вы не можете прикреплять файлы к сообщениям
    Вы можете скачивать файлы