Anonymous, добрый вечер, присоединяйтесь к нам в Telegram!, здесь всегда актуальный адрес сайта, оперативная поддержка и многое другое!

>

5.5

iTunes

7.4

iTunes

7.9

iTunes

1

7.7

1 сезон

6.8

iTunes

7.3

1 сезон

13

6.7

1 сезон

8.3

RePack

30

ULTIMATE

pack

9.9

Лицензия

ВАЖНО

ИГРА 18+

pack

7.3

RePack

MK11

7.7

RePack

jed

7.8

RePack

fifa19

8.5

RePack

RDR2

RePack

NEED FOR SPEED™ PAYBACK

4 сезон

9 сезон

Бесстыжие 9 сезон

Все сериалы

все сериалы на PB.wtf

RePack

FAR CRY 5

Anonymous, добрый вечер, мы катастрофически не успеваем собрать деньги на оплату серверов, помогите нам пожалуйста 5,10,15р., для нас важна любая помощь . В качестве благодарности мы отключим Вам всю рекламу на сайте (укажите свой ник в строку Ваше имя)!

×
  
Magnet ссылка

СашаТаня 2 сезон: 1-16 серии из 16 (Михаил Старчак) [2015 г., Комедийный телесериал, WEB-DLRip 720p] pb.wtf

СашаТаня 2 сезон: 1-16 серии из 16 через торрент pb.wtf

Размер: 8.05 GB | Добавлен: 6 лет 8 мес. назад | Торрент скачан:539 раз
Смотреть онлайн СашаТаня 2 сезон: 1-16 серии из 16 | Скачать    Ребята, помогите собрать деньги на оплату серверов!!!

13-01-2015 07:10 СашаТаня 2 сезон: 1-16 серии из 16 Скачать торрент  

СашаТаня
Год выпуска: 2015
Страна: Россия / Comedy Club Production
Жанр: Комедийный телесериал
Продолжительность: ~ 00:25:00

Режиссер: Михаил Старчак

В ролях: Андрей Гайдулян, Валентина Рубцова, Алексей Климушкин, Елена Бирюкова, Татьяна Орлова, Андрей Лебедев, Ксения Хаирова, Олег Новиков, Сергей Рудзевич, Сергей Мурзин, Андрей Свиридов, Павел Кассинский, Виталий Гогунский, Арарат Кещян, Ёлка, Алексей Гаврилов, Лариса Баранова

Описание: Сериал про молодую семью Сергеевых. После окончания института Саша и Таня вместе со своим маленьким сыном Алёшкой решили пожить самостоятельно и сняли квартиру в Южном Бутово. Райончик конечно не из лучших, но зато и цены на жилье тут доступные, ведь Саша не собирается пользоваться миллиардами своего папы. Но Сильвестр Андреевич не собирается так просто отставать от молодых и тем более от своего внука. Поэтому он поселился по соседству, только в просторной и роскошной квартире.

Качество: WEB-DLRip 720p
Формат: MKV
Видео кодек: AVC
Аудио кодек: AC3
Видео: 1280x720 (16:9), 25.000 fps, 2 935 Kbps (0.127 bit/pixel)
Аудио#1: 48.0 KHz, 2 ch, 192 Kbps, CBR (Russian)

Торрент обновлен...Добавлена 16-я серия
Внимание! Раздача ведётся путём добавления новых серий; при каждом добавлении создётся новый торрент. Чтобы начать докачку новой серии, пользователям необходимо сделать следующее:
(1) остановить скачивание,
(2) удалить старый торрент у себя из клиента (старые серии удалять не надо),
(3) скачать новый торрент и запустить его у себя в клиенте вместо старого, при этом указать клиенту путь в старую папку куда и должно происходить скачивание новых серий.

Ваш клиент при этом должен произвести хеширование (проверку) старой папки (если не производит сам - помогите ему сделать это), и будет докачивать только те серии которых у вас ещё нет. Старые серии при этом не удаляются, а продолжают раздаваться!

Eсли вы уже удалили старые серии, то предотвратить повторную закачку старых серий можно, отжав галочку в соответсвующих местах при запуске нового торрента. По возможности, желательно не удалять старые серии как можно дольше чтобы релизёр не столько продолжал раздавать старые серии, а смог сконцентрироваться на новых.
скриншот   скриншот   скриншот   скриншот   скриншот   скриншот   скриншот  

Общее
Уникальный идентификатор : 173216680591371598342608548025957095582 (0x825051B73604E614AAA44CE22848189E)
Полное имя : F:\Фильмы торренты\SashaTanja.02.2015.WEB-DL.(720p).MediaClub\SashaTanja.02.(01.seriya).2015.WEB-DL.(720p).MediaClub.mkv
Формат : Matroska
Версия формата : Version 2
Размер файла : 493 Мбайт
Продолжительность : 21 м.
Общий поток : 3190 Кбит/сек
Название фильма : SashaTanja.02.(01.seriya).2015.WEB-DL.(720p).MediaClub
Дата кодирования : UTC 2015-01-12 17:31:33
Программа кодирования : mkvmerge v5.8.0 ('No Sleep / Pillow') built on Sep 2 2012 15:37:04
Библиотека кодирования : libebml v1.2.3 + libmatroska v1.3.0

Видео
Идентификатор : 1
Формат : AVC
Формат/Информация : Advanced Video Codec
Профиль формата : High@L4.0
Параметр CABAC формата : Да
Параметр ReFrames формата : 8 кадров
Идентификатор кодека : V_MPEG4/ISO/AVC
Продолжительность : 21 м.
Битрейт : 2935 Кбит/сек
Ширина : 1280 пикселей
Высота : 720 пикселей
Соотношение сторон : 16:9
Режим частоты кадров : Постоянный
Частота кадров : 25,000 кадров/сек
Цветовое пространство : YUV
Субдискретизация насыщенности : 4:2:0
Битовая глубина : 8 бит
Тип развёртки : Прогрессивная
Бит/(Пиксели*Кадры) : 0.127
Размер потока : 453 Мбайт (92%)
Библиотека кодирования : x264 core 136
Настройки программы : cabac=1 / ref=8 / deblock=1:-1:-1 / analyse=0x3:0x133 / me=umh / subme=9 / psy=1 / psy_rd=1.00:0.15 / mixed_ref=1 / me_range=16 / chroma_me=1 / trellis=2 / 8x8dct=1 / cqm=0 / deadzone=21,11 / fast_pskip=1 / chroma_qp_offset=-3 / threads=18 / lookahead_threads=1 / sliced_threads=0 / nr=0 / decimate=1 / interlaced=0 / bluray_compat=0 / constrained_intra=0 / bframes=3 / b_pyramid=2 / b_adapt=2 / b_bias=0 / direct=3 / weightb=1 / open_gop=0 / weightp=2 / keyint=100 / keyint_min=10 / scenecut=40 / intra_refresh=0 / rc_lookahead=60 / rc=crf / mbtree=1 / crf=17.0 / qcomp=0.60 / qpmin=0 / qpmax=69 / qpstep=4 / vbv_maxrate=3600 / vbv_bufsize=3600 / crf_max=0.0 / nal_hrd=none / ip_ratio=1.40 / aq=1:1.00
Default : Да
Forced : Да

Аудио
Идентификатор : 2
Формат : AC-3
Формат/Информация : Audio Coding 3
Расширение режима : CM (complete main)
Параметр Endianness формата : Big
Идентификатор кодека : A_AC3
Продолжительность : 21 м.
Вид битрейта : Постоянный
Битрейт : 192 Кбит/сек
Каналы : 2 канала
Расположение каналов : Front: L R
Частота : 48,0 КГц
Битовая глубина : 16 бит
Метод сжатия : С потерями
Задержка видео : -80 мс.
Размер потока : 29,7 Мбайт (6%)
Язык : Russian
Default : Да
Forced : Да

pb.wtf



Скачать СашаТаня 2 сезон: 1-16 серии из 16 через торрент https://pic1.kartinco.top/images/81/esp4y.jpg Скачать, смотреть онлайн СашаТаня 2 сезон: 1-16 серии из 16 бесплантно в хорошем качестве Описание: Сериал про молодую семью Сергеевых. После окончания института Саша и Таня вместе со своим маленьким сыном Алёшкой решили пожить ... 9.4 10 57
Info! Золотая раздача, скачанное не засчитывается.
Торрент: Зарегистрирован [2015-02-05 20:27] · скачан: 539 раз
Статус: √ проверено
Размер: 8.05 GB
Как cкачать? Как скачать СашаТаня 2 сезон: 1-16 серии из 16 через торрент | UTorrent

% Раздел Тема Автор DL S | L
TNT serials [ 4.72 GB ] СашаТаня 2 Сезон: 1-16 серия из 20 [2015 SATRip] DEVI Скачать
1 | 0


Последний раз редактировалось: Assasinca (2015-02-05 20:26), всего редактировалось 8 раз(а)

28-11-2019 20:33  

Отключить всю рекламу на сайте

27-01-2015 04:39 СашаТаня 2 сезон: 1-16 серии из 16 Скачать торрент  

чё за :cansored: сериал!?pb.wtf



27-01-2015 13:49 СашаТаня 2 сезон: 1-16 серии из 16 Скачать торрент  

10 серия сегодня будет?pb.wtf



28-01-2015 19:43 СашаТаня 2 сезон: 1-16 серии из 16 Скачать торрент  

Достаточно смешной сериал.pb.wtf



28-01-2015 21:10 СашаТаня 2 сезон: 1-16 серии из 16 Скачать торрент  

Молодая семья... Этой тане вполне лет пятьдесят можно дать. И Цензура еще та(((pb.wtf



29-01-2015 20:41 СашаТаня 2 сезон: 1-16 серии из 16 Скачать торрент  

Ахахах!Эт-то точно!pb.wtf



29-01-2015 21:17 СашаТаня 2 сезон: 1-16 серии из 16 Скачать торрент  

SS44 писал(а):

Молодая семья... Этой тане вполне лет пятьдесят можно дать. И Цензура еще та(((

не могу не согласиться)) таней можно пугать непослушных детей))pb.wtf



03-02-2015 14:24 СашаТаня 2 сезон: 1-16 серии из 16 Скачать торрент  

спасибоpb.wtf



05-02-2015 20:26 СашаТаня 2 сезон: 1-16 серии из 16 Скачать торрент  

Нету 16 серии ......pb.wtf



07-02-2015 08:59 СашаТаня 2 сезон: 1-16 серии из 16 Скачать торрент  

Все по кайфу! собрались тут старперы=)pb.wtf



07-11-2018 13:01 СашаТаня 2 сезон: 1-16 серии из 16 Скачать торрент  

СПАСИБЛpb.wtf



    Дорогой пользователь! Огромная просьба, поблагодарите релизера, оцените раздачу и оставьте свои комментарий, если Вы скачали СашаТаня 2 сезон: 1-16 серии из 16 через торрент бесплатно!
    Комментировать посты могут только пользователи прошедшие не сложную регистрацию
    Показать сообщения:    

    СашаТаня 2 сезон: 1-16 серии из 16 через торрент
    Скачать бесплатно СашаТаня 2 сезон: 1-16 серии из 16
    СашаТаня 2 сезон: 1-16 серии из 16 скачать торрент
    СашаТаня 2 сезон: 1-16 серии из 16 смотреть онлайн
    Cкачать фильм СашаТаня 2 сезон: 1-16 серии из 16 бесплатно
    СашаТаня 2 сезон: 1-16 серии из 16 скачать торрент в хорошем качестве
    СашаТаня 2 сезон: 1-16 серии из 16 смотреть онлайн бесплатно в хорошем качестве


    Вы не можете начинать темы
    Вы не можете отвечать на сообщения
    Вы не можете редактировать свои сообщения
    Вы не можете удалять свои сообщения
    Вы не можете голосовать в опросах
    Вы не можете прикреплять файлы к сообщениям
    Вы можете скачивать файлы