Ссылка на приватное зеркало нашего сайта всего за 1$. Внимание количество ограничено!!!

2 сезон

iTunes

1 сезон

1

2 сезон

2 сезон

iTunes

1 сезон

RePack

30

Ultimate

ВАЖНО

ИГРА 18+

pack

RePack

MK11
pack

Забери бонус

RePack

jed

!!Акция!!

Alien_Rage

RePack

fifa19

RePack

Assassins Creed: Odyssey

RePack

NEED FOR SPEED™ PAYBACK

4 сезон

9 сезон

Бесстыжие 9 сезон

Все сериалы

все сериалы на PB.wtf

RePack

FAR CRY 5
  

Агент Картер / Agent Carter / Сезон: 1 / Серии: 1-8 из 8 (Луис Д'Эспозито, Питер Лето, Джо Руссо, Скотт Уинэнт) [2014, фантастический боевик, WEB-DLRip] MVO (LostFilm) + Original + Subs (Rus, Eng) pb.wtf

Агент Картер через торрент pb.wtf

Размер: 4.3 GB | Добавлен: 5 лет 9 мес. назад | Торрент скачан:336 раз
Скачать  

13-01-2015 07:57 Агент Картер Скачать торрент  


Агент Картер / Agent Carter
Год выпуска: 2015
Страна: США
Жанр: фантастика, боевик, приключения
Продолжительность: 00:45:00
Перевод: Многоголосый закадровый, LostFilm
Субтитры: англ, русские

Режиссер: Луис Д’Эспозито, Питер Лето, Джо Руссо



В ролях: Хейли Этвелл, Ши Уигхэм, Линдси Фонсека, Кайл Борнхаймер, Меган Фэй, Бриджет Риган, Александр Кэрролл, Джеймс Хеберт, Лесли Бун, Джеймс Д’Арси

Описание: История Пегги Картер. В 1946 году мир нанес Пегги серьезный удар, когда она оказывается в неудобном для нее положении с возвращением домой мужчин со сражений за границей. Работая на секретную организацию СНР (Стратегический Научный Резерв), Пегги должна найти баланс между административной работой и секретными миссиями для Говарда Старка, одновременно пытаясь жить нормальной жизнью одинокой женщины в Америке после утраты любви всей ее жизни — Стива Роджерса.

Качество: WEB-DLRip
Формат: AVI
Видео кодек: XviD
Аудио кодек: AC3
Видео: ~1500 Кбит/сек, 720x400 (1.800), 23.976 кадр/сек
Аудио#1: Rus: MPEG Audio Layer 3, 2 канала, 48,0 КГц, 192 Кбит/сек
Аудио#2: Eng: MPEG Audio Layer 3, 2 канала, 48,0 КГц, 192 Кбит/сек
Видео без рекламной вставки и логотипа «LostFilm»
Добавлена 8-я серия. Финал
01. Это еще не конец /Now is Not The End
02. Мост и тоннель (Bridge and Tunnel)
03. Течение времени (Time and Tide)
04. Кнопка «Блицкриг» (The Blitzkrieg Button)
05. Железный потолок (The Iron Ceiling)
06. Грех в заблуждении /A Sin to Err
07. Капут /SNAFU
08 Прощальная речь (Valediction)
Внимание! Раздача ведётся путём добавления новых серий; при каждом добавлении создётся новый торрент. Чтобы начать докачку новой серии, пользователям необходимо сделать следующее:
Остановить скачивание.
Удалить старый торрент у себя из клиента (старые серии удалять не надо).
Скачать новый торрент и запустить его у себя в клиенте вместо старого, при этом указать клиенту путь в старую папку куда и должно происходить скачивание новых серий.
Ваш клиент при этом должен произвести хеширование (проверку) старой папки (если не производит сам - помогите ему сделать это), и будет докачивать только те серии которых у вас ещё нет. Старые серии при этом не удаляются, а продолжают раздаваться!
Eсли вы уже удалили старые серии, то предотвратить повторную закачку старых серий можно, отжав галочку в соответсвующих местах при запуске нового торрента. По возможности, желательно не удалять старые серии как можно дольше чтобы релизёр не столько продолжал раздавать старые серии, а смог сконцентрироваться на новых.
скриншот   скриншот   скриншот   скриншот   скриншот   скриншот   скриншот  

Формат : AVI
Формат/Информация : Audio Video Interleave
Размер файла : 550 Мбайт
Продолжительность : 42 м.
Общий поток : 1805 Кбит/сек
Программа кодирования : VirtualDubMod 1.5.10.3 (build 2550/release)
Библиотека кодирования : VirtualDubMod build 2550/release

Видео
Идентификатор : 0
Формат : MPEG-4 Visual
Профиль формата : Advanced Simple@L5
Параметр BVOP формата : 1
Параметр QPel формата : Нет
Параметр GMC формата : Без точки перехода
Параметр матрицы формата : Default (H.263)
Идентификатор кодека : XVID
Идентификатор кодека/Подсказка : XviD
Продолжительность : 42 м.
Битрейт : 1407 Кбит/сек
Ширина : 720 пикселей
Высота : 400 пикселей
Соотношение сторон : 16:9
Частота кадров : 23,976 кадра/сек
Цветовое пространство : YUV
Субдискретизация насыщенности : 4:2:0
Битовая глубина : 8 бит
Тип развёртки : Прогрессивная
Метод сжатия : С потерями
Бит/(Пиксели*Кадры) : 0.204
Размер потока : 429 Мбайт (78%)
Библиотека кодирования : XviD 1.2.1 (UTC 2008-12-04)

Аудио #1
Идентификатор : 1
Формат : MPEG Audio
Версия формата : Version 1
Профиль формата : Layer 3
Режим : Joint stereo
Расширение режима : MS Stereo
Идентификатор кодека : 55
Идентификатор кодека/Подсказка : MP3
Продолжительность : 42 м.
Вид битрейта : Постоянный
Битрейт : 192 Кбит/сек
Каналы : 2 канала
Частота : 48,0 КГц
Метод сжатия : С потерями
Размер потока : 58,5 Мбайт (11%)
Выравнивание : Соединение по промежуткам
Продолжительность промежутка : 42 мс. (1,00 видеокадр)
Время предзагрузки промежутка : 504 мс.
Библиотека кодирования : LAME3.99r
Настройки программы : -m j -V 4 -q 3 -lowpass 18.6 -b 192

Аудио #2
Идентификатор : 2
Формат : MPEG Audio
Версия формата : Version 1
Профиль формата : Layer 3
Режим : Joint stereo
Расширение режима : MS Stereo
Идентификатор кодека : 55
Идентификатор кодека/Подсказка : MP3
Продолжительность : 42 м.
Вид битрейта : Постоянный
Битрейт : 192 Кбит/сек
Каналы : 2 канала
Частота : 48,0 КГц
Метод сжатия : С потерями
Размер потока : 58,5 Мбайт (11%)
Выравнивание : Соединение по промежуткам
Продолжительность промежутка : 42 мс. (1,00 видеокадр)
Время предзагрузки промежутка : 504 мс.
Библиотека кодирования : LAME3.99r

pb.wtf



Скачать Агент Картер через торрент http://pic.kartinco.top/images/8/1zhqe.jpg Скачать фильм Агент Картер через торрент бесплантно в хорошем качестве Описание: История Пегги Картер. В 1946 году мир нанес Пегги серьезный удар, когда она оказывается в неудобном для нее положении с ... 9.1 10 15
Info! Золотая раздача, скачанное не засчитывается.
Торрент: Зарегистрирован [2015-02-27 05:42] · скачан: 336 раз
Статус: √ проверено
Размер: 4.3 GB
Как cкачать? Как скачать Агент Картер через торрент | qTorrent

% Раздел Тема Автор DL S | L
Зарубежные сериалы [ 10.18 GB ] Агент Картер / Agent Carter / Сезон: 1 / Серии: 1-8 из 8 [2014 фантастический WEB-DLRip 720p] MVO Assasinca Скачать
1 | 0
Зарубежные сериалы [ 2.31 GB ] Агент Картер / Agent Carter / Сезон: 1 / Серии 1-8 из 8 [2015 WEB-DLRip] MVO [LostFilm] GEKADOL Скачать
1 | 0

28-11-2019 20:33  

Отключить всю рекламу на сайте

    Дорогой пользователь! Огромная просьба, поблагодарите релизера, оцените раздачу и оставьте свои комментарий, если Вы скачали Агент Картер через торрент бесплатно! Внесите свою лепту в развитие PiratBit!
    Комментировать посты могут только пользователи прошедшие не сложную регистрацию
    Показать сообщения:    

    Агент Картер через торрент
    Скачать бесплатно Агент Картер
    Агент Картер скачать торрент
    Агент Картер смотреть онлайн
    Cкачать фильм Агент Картер бесплатно
    Агент Картер скачать торрент в хорошем качестве
    Агент Картер смотреть онлайн бесплатно в хорошем качестве


    Вы не можете начинать темы
    Вы не можете отвечать на сообщения
    Вы не можете редактировать свои сообщения
    Вы не можете удалять свои сообщения
    Вы не можете голосовать в опросах
    Вы не можете прикреплять файлы к сообщениям
    Вы можете скачивать файлы