Ссылка на приватное зеркало нашего сайта всего за 1$. Внимание количество ограничено!!!

2 сезон

iTunes

1 сезон

1

2 сезон

2 сезон

iTunes

1 сезон

RePack

30

Ultimate

ВАЖНО

ИГРА 18+

pack

RePack

MK11
pack

Забери бонус

RePack

jed

!!Акция!!

Alien_Rage

RePack

fifa19

RePack

Assassins Creed: Odyssey

RePack

NEED FOR SPEED™ PAYBACK

4 сезон

9 сезон

Бесстыжие 9 сезон

Все сериалы

все сериалы на PB.wtf

RePack

FAR CRY 5
  

Утопия / Utopia / Сезон: 2 / Серии 6 из 6 (Марк Манден, Алекс Гарсия Лопес) [2014, детектив, триллер, HDTVRip 720p] MVO (LostFilm) + Original pb.wtf

Утопия через торрент pb.wtf

Размер: 10.12 GB | Добавлен: 5 лет 10 мес. назад | Торрент скачан:19 раз
Скачать  

13-01-2015 10:00 Утопия Скачать торрент  

Утопия / Utopia
Год выпуска: 2014
Страна: Великобритания
Жанр: детектив, триллер
Продолжительность: ~00:45:00
Перевод: Профессиональный многоголосый «LostFilm»

Режиссер: Марк Манден, Алекс Гарсия Лопес



В ролях: Джеймс Фокс, Фиона О’Шонесси, Александра Роач, Нэйтан Стюарт-Джарретт, Рут Геммелль, Анна Маделей, Адиль Ахтар, Пол Хиггинс, Оливер Вуллфорд, Майкл Смайли

Описание: В самый обыкновенный день в магазин комиксов заявляются два киллера из могущественной тайной организации «Сеть». Они разыскивают неизданную вторую часть загадочного графического романа «Эксперименты Утопии», автором которого является генетик-шизофреник, покончивший с собой. Поскольку никто из персонала и посетителей магазина не может им помочь, убийцы жестоко и весьма оригинально расправляются со случайными неудачниками. Также они узнают, что рукопись попала к одному из ее фанатов. Он уже успел назначить встречу четырем другими поклонниками «Утопии», чтобы похвастаться приобретением. Среди них: IT-консультант Йен (Натан Стюарт-Джарретт), живущий с мамой, студентка Бэкки (Александра Роач), выбравшая комикс темой докторской диссертации, параноик Уилсон Уилсон (Адиль Ахтар), верящий в теории заговоров, и школьник Грант (Оливер Вуллфорд). Разношерстная группа оказывается в смертельной опасности: за манускриптом охотятся не только киллеры, но и крупная фармацевтическая компания. И все участники этой гонки готовы идти ради «Утопии» на самые крайние меры…



Качество: HDTVRip 720p
Формат: MKV
Видео кодек: AVC
Аудио кодек: AC3
Видео: 1280x720 (16:9), 25.000 fps, 4 000 Kbps (0.174 bit/pixel)
Аудио#1: 48.0 KHz, 2 ch, 384 Kbps, CBR (Russian)
Аудио#2: 48.0 KHz, 2 ch, 384 Kbps, CBR (English)
Добавлена 6 серия. Финал сезона
Внимание! Раздача ведётся путём добавления новых серий; при каждом добавлении создаётся новый торрент. Чтобы начать докачку новой серии, пользователям необходимо сделать следующее:
(1) остановить скачивание,
(2) удалить старый торрент у себя из клиента (старые серии удалять не надо),
(3) скачать новый торрент и запустить его у себя в клиенте вместо старого, при этом указать клиенту путь в старую папку куда и должно происходить скачивание новых серий.
Ваш клиент при этом должен произвести хеширование (проверку) старой папки (если не производит сам - помогите ему сделать это), и будет докачивать только те серии которых у вас ещё нет. Старые серии при этом не удаляются, а продолжают раздаваться!
Eсли вы уже удалили старые серии, то предотвратить повторную закачку старых серий можно, отжав галочку в соответствующих местах при запуске нового торрента. По возможности, желательно не удалять старые серии как можно дольше чтобы релизёр не столько продолжал раздавать старые серии, а смог сконцентрироваться на новых.
скриншот   скриншот   скриншот   скриншот   скриншот   скриншот  

Общее
Уникальный идентификатор : 174094010934542282627820816489810970112 (0x82F94970F3382EF0B06D993DA9234600)
Полное имя : I:\Утопия\Утопия (Utopia). 2 сезон,720p HDTVRip\Utopia.S02E01.720p.rus.LostFilm.TV.mkv
Формат : Matroska
Версия формата : Version 2
Размер файла : 1,77 Гбайт
Продолжительность : 53 м.
Общий поток : 4768 Кбит/сек
Дата кодирования : UTC 2015-01-12 19:32:03
Программа кодирования : mkvmerge v4.2.0 ('No Talking') сборка от Jul 28 2010 18:38:23
Библиотека кодирования : libebml v1.0.0 + libmatroska v1.0.0

Видео
Идентификатор : 1
Формат : AVC
Формат/Информация : Advanced Video Codec
Профиль формата : High@L4.1
Параметр CABAC формата : Нет
Параметр ReFrames формата : 4 кадра
Идентификатор кодека : V_MPEG4/ISO/AVC
Продолжительность : 53 м.
Битрейт : 4000 Кбит/сек
Ширина : 1280 пикселей
Высота : 720 пикселей
Соотношение сторон : 16:9
Режим частоты кадров : Постоянный
Частота кадров : 25,000 кадров/сек
Цветовое пространство : YUV
Субдискретизация насыщенности : 4:2:0
Битовая глубина : 8 бит
Тип развёртки : Прогрессивная
Бит/(Пиксели*Кадры) : 0.174
Размер потока : 1,45 Гбайт (82%)
Библиотека кодирования : x264 core 112 r1834 a51816a
Настройки программы : cabac=0 / ref=3 / deblock=1:0:0 / analyse=0x3:0x113 / me=hex / subme=7 / psy=1 / psy_rd=1.00:0.00 / mixed_ref=1 / me_range=16 / chroma_me=1 / trellis=1 / 8x8dct=1 / cqm=0 / deadzone=21,11 / fast_pskip=1 / chroma_qp_offset=-2 / threads=6 / sliced_threads=0 / nr=0 / decimate=1 / interlaced=0 / constrained_intra=0 / bframes=3 / b_pyramid=2 / b_adapt=1 / b_bias=0 / direct=1 / weightb=1 / open_gop=0 / weightp=2 / keyint=250 / keyint_min=25 / scenecut=40 / intra_refresh=0 / rc_lookahead=40 / rc=2pass / mbtree=1 / bitrate=4000 / ratetol=1.0 / qcomp=0.60 / qpmin=0 / qpmax=51 / qpstep=4 / cplxblur=20.0 / qblur=0.5 / vbv_maxrate=5000 / vbv_bufsize=2000 / ip_ratio=1.40 / aq=1:1.00 / nal_hrd=none
Default : Да
Forced : Нет

Аудио #1
Идентификатор : 2
Формат : AC-3
Формат/Информация : Audio Coding 3
Расширение режима : CM (complete main)
Параметр Endianness формата : Big
Идентификатор кодека : A_AC3
Продолжительность : 53 м.
Вид битрейта : Постоянный
Битрейт : 384 Кбит/сек
Каналы : 2 канала
Расположение каналов : Front: L R
Частота : 48,0 КГц
Битовая глубина : 16 бит
Метод сжатия : С потерями
Размер потока : 146 Мбайт (8%)
Default : Да
Forced : Нет

Аудио #2
Идентификатор : 3
Формат : AC-3
Формат/Информация : Audio Coding 3
Расширение режима : CM (complete main)
Параметр Endianness формата : Big
Идентификатор кодека : A_AC3
Продолжительность : 53 м.
Вид битрейта : Постоянный
Битрейт : 384 Кбит/сек
Каналы : 2 канала
Расположение каналов : Front: L R
Частота : 48,0 КГц
Битовая глубина : 16 бит
Метод сжатия : С потерями
Размер потока : 146 Мбайт (8%)
Default : Нет
Forced : Нет

pb.wtf



Скачать Утопия через торрент http://pic.kartinco.top/images/8/ov5i3.jpg Скачать фильм Утопия через торрент бесплантно в хорошем качестве Описание: В самый обыкновенный день в магазин комиксов заявляются два киллера из могущественной тайной организации «Сеть». Они разыскивают ... 8.8 10 5
Торрент: Зарегистрирован [2015-01-22 14:46] · скачан: 19 раз
Статус: √ проверено
Размер: 10.12 GB
Как cкачать? Как скачать Утопия через торрент | qTorrent



Последний раз редактировалось: Assasinca (2015-01-22 14:46), всего редактировалось 1 раз

28-11-2019 20:33  

Отключить всю рекламу на сайте

20-01-2015 19:42 Утопия Скачать торрент  

премьера (мир) 15 января 2013pb.wtf



22-01-2015 14:50 Утопия Скачать торрент  

ahperchic писал(а):

премьера (мир) 15 января 2013

Это первая серия...S2, Ep1
14 Jul. 2014
Это конец сезона... S2, Ep6
12 Aug. 2014
http://www.imdb.com/title/tt2384811/episodes?season=2&ref_=tt_eps_sn_2pb.wtf



    Дорогой пользователь! Огромная просьба, поблагодарите релизера, оцените раздачу и оставьте свои комментарий, если Вы скачали Утопия через торрент бесплатно! Внесите свою лепту в развитие PiratBit!
    Комментировать посты могут только пользователи прошедшие не сложную регистрацию
    Показать сообщения:    

    Утопия через торрент
    Скачать бесплатно Утопия
    Утопия скачать торрент
    Утопия смотреть онлайн
    Cкачать фильм Утопия бесплатно
    Утопия скачать торрент в хорошем качестве
    Утопия смотреть онлайн бесплатно в хорошем качестве


    Вы не можете начинать темы
    Вы не можете отвечать на сообщения
    Вы не можете редактировать свои сообщения
    Вы не можете удалять свои сообщения
    Вы не можете голосовать в опросах
    Вы не можете прикреплять файлы к сообщениям
    Вы можете скачивать файлы