Всегда рабочее зеркало без VPN и Proxy просто перед .vidak.icu напиши любое слово или цифру, Пример http://uc3e.vidak.icu

MVO

2 сезон

1 сезон

1

1 сезон

iTunes

2 сезон

13

1 сезон

Deluxe

pack

Рекомендуем

Пиратка

30

ВАЖНО

RePack

MK11

RePack

jed

RePack

fifa19

RePack

RDR2

RePack

NEED FOR SPEED™ PAYBACK

Кинопоиск HD

6 сезон

 Острые козырьки 6 сезон

Все сериалы

все сериалы на PB.wtf

RePack

FAR CRY 5

Anonymous, нам критически не хватает 5601 руб. на оплату серверов и переферии за Апрель, помоги нам пожалуйста, вся надежда только на тебя. В благодарность мы отключим тебе всю рекламу на сайте!

×
  
Magnet ссылка

Д`Артаньян и три мушкетёра (3 серии из 3) (Георгий Юнгвальд-Хилькевич) [1979 г., Музыкальный, приключения, HDTV1080p] Оригинал pb.wtf

Д`Артаньян и три мушкетёра через торрент pb.wtf

Размер: 14.41 GB | Добавлен: 7 лет 4 мес. назад | Торрент скачан:58 раз
Смотреть онлайн Д`Артаньян и три мушкетёра | Скачать    Ребята, помогите собрать деньги на оплату серверов!!!

13-01-2015 11:50 Д`Артаньян и три мушкетёра Скачать торрент  

Д`Артаньян и три мушкетёра
Год выпуска: 1979
Страна: СССР
Жанр: Музыкальный, приключения
Продолжительность: 03:59:30
Перевод: Оригинал
Субтитры: нет

Режиссер: Георгий Юнгвальд-Хилькевич

В ролях: Михаил Боярский, Валентин Смирнитский, Лев Дуров, Олег Табаков, Алиса Фрейндлих, Маргарита Терехова, Елена Цыплакова, Ирина Алферова, Юрий Шерстнёв, Александр Трофимов, Борис Клюев, Вениамин Смехов, Юрий Дубровин, Игорь Старыгин, Леонид Каневский, Инга Третьякова, Владимир Балон, Алексей Кузнецов

Описание: Это замечательный музыкальный фильм, снятый по одному из самых знаменитых приключенческих романов Александра Дюма. Четверо друзей - мушкетёров спасают честь королевы Франции, вступают в единоборство со всесильным кардиналом Ришелье и коварной миледи, а главное - наслаждаются жизнью.

Качество: HDTV (1080p)
Формат: MPEG
Видео кодек: AVC
Аудио кодек: MP2
Видео: MPEG-4 ,AVC (1920x1080), 7994 Кбит/с, 25.000 кадра/сек
Аудио#1: MP 2, 2 ch,192 kbps (Rus) 48.0 KHz Оригинал
скриншот   скриншот   скриншот  

Тип потока: Видео
Длительность: 03:59:30
Кодек: AVC
Кодек/описание: Advanced Video Codec
Кодек/профиль: High@L4.0
Кодек/ID: 27
Кодек/CABAC: Yes
Кодек/ReFrames: 3 frames
Размеры изображения: 1920 x 1080 (16:9)
Частота кадров: 25.000 fps
Размер потока: 13.4 GiB (93%)
Битрейт: 7 994 Kbps
Стандарт: Component
Цветовое пространство: YUV
Тип развёртки: Interlaced
Колориметрия: 4:2:0
Глубина: 8 bits
:
Тип потока: Звук #1
Язык: Russian
Длительность: 03:59:30.336
Кодек: MPEG Audio
Кодек/профиль: Layer 2
Кодек/ID: 4
Частота дискретизации: 48.0 KHz
Каналов: 2 channels
Битрейт: 192 Kbps
Битрейт/тип: Constant
Размер потока: 329 MiB (2%)
Метод сжатия: Lossy

pb.wtf



Скачать Д`Артаньян и три мушкетёра через торрент https://pic1.kartinco.top/images/81/52jfn.jpg Скачать, смотреть онлайн Д`Артаньян и три мушкетёра бесплантно в хорошем качестве Описание: Это замечательный музыкальный фильм, снятый по одному из самых знаменитых приключенческих романов Александра Дюма. Четверо друзей ... 10 10 10
Info! Золотая раздача, скачанное не засчитывается.
Торрент: Зарегистрирован [2015-01-13 11:50] · скачан: 58 раз
Статус: √ проверено
Размер: 14.41 GB
Как cкачать? Как скачать Д`Артаньян и три мушкетёра через торрент | UTorrent

28-11-2019 20:33  

Отключить всю рекламу на сайте

13-01-2015 11:53 Д`Артаньян и три мушкетёра Скачать торрент  

фильм класс советую всем пересмотреть и в коллекциюpb.wtf



13-01-2015 12:19 Д`Артаньян и три мушкетёра Скачать торрент  

я как раз дочитываю)и пересмотрю)pb.wtf



    Дорогой пользователь! Огромная просьба, поблагодарите релизера, оцените раздачу и оставьте свои комментарий, если Вы скачали Д`Артаньян и три мушкетёра через торрент бесплатно!
    Комментировать посты могут только пользователи прошедшие не сложную регистрацию
    Показать сообщения:    

    Д`Артаньян и три мушкетёра через торрент
    Скачать бесплатно Д`Артаньян и три мушкетёра
    Д`Артаньян и три мушкетёра скачать торрент
    Д`Артаньян и три мушкетёра смотреть онлайн
    Cкачать фильм Д`Артаньян и три мушкетёра бесплатно
    Д`Артаньян и три мушкетёра скачать торрент в хорошем качестве
    Д`Артаньян и три мушкетёра смотреть онлайн бесплатно в хорошем качестве


    Вы не можете начинать темы
    Вы не можете отвечать на сообщения
    Вы не можете редактировать свои сообщения
    Вы не можете удалять свои сообщения
    Вы не можете голосовать в опросах
    Вы не можете прикреплять файлы к сообщениям
    Вы можете скачивать файлы