2 сезон

iTunes

MVO

1

2 сезон

iTunes

iTunes

1 сезон

RePack

30

Новинка

ВАЖНО

ИГРА 18+

pack

RePack

MK11
pack

Легкие деньги

RePack

jed

RePack

fifa19

RePack

RDR2

RePack

NEED FOR SPEED™ PAYBACK

4 сезон

9 сезон

Бесстыжие 9 сезон

Все сериалы

все сериалы на PB.wtf

RePack

FAR CRY 5

Anonymous, доброй ночи, мы не успеваем собрать деньги на оплату серверов за декабрь и январь, помогите нам пожалуйста в это трудное время. В качестве благодарности мы отключим Вам всю рекламу на сайте (укажите свой ник в строку Ваше имя)!

×
  
Magnet ссылка

Стражи Галактики / Guardians of the Galaxy (Джеймс Ганн) [2014 г., Фантастика, Боевик, Приключения, BDRip 1080p, Дубляж, Лицензия] Анаглиф (Дюбуа) pb.wtf

Стражи Галактики через торрент pb.wtf

Размер: 8.24 GB | Добавлен: 6 лет назад | Торрент скачан:291 раз
Скачать  

13-01-2015 13:56 Стражи Галактики Скачать торрент  

Стражи Галактики / Guardians of the Galaxy
Год выпуска: 2014
Страна: США, Великобритания
Жанр: Фантастика, Боевик, Приключения
Продолжительность: 02:00:51
Перевод: Дубляж, Лицензия

Режиссер: Джеймс Ганн
Продюссер: Кевин Файги, Виктория Алонсо, Луис Д’Эспозито,
Сценарий: Джеймс Ганн, Николь Перлман, Дэн Абнетт

Бюджет: $170 000 000
Премьера в мире: 21 июля 2014



В ролях: Крис Прэтт /Chris Pratt/, Дэйв Батиста /Dave Bautista/, Зои Салдана /Zoe Saldana/, Брэдли Купер /Bradley Cooper/, Вин Дизель/Vin Diesel/, Ли Пейс /Lee Pace/, Карен Гиллан /Karen Gillan/, Майкл Рукер /Michael Rooker/, Гленн Клоуз /Glenn Close/, Джимон Хонсу /Djimon Hounsou/, Бенисио Дель Торо /Benicio Del Toro/

Описание: Отважному путешественнику Питеру Квиллу попадает в руки таинственный артефакт, принадлежащий могущественному и безжалостному злодею Ронану, строящему коварные планы по захвату Вселенной. Питер оказывается в центре межгалактической охоты, где жертва — он сам. Единственный способ спасти свою жизнь — объединиться с четверкой нелюдимых изгоев: воинственным енотом по кличке Ракета, человекоподобным деревом Грутом, смертельно опасной Гаморой и одержимым жаждой мести Драксом, также известным как Разрушитель. Когда Квилл понимает, какой силой обладает украденный артефакт и какую опасность он представляет для вселенной, одиночка пойдет на все, чтобы сплотить случайных союзников для решающей битвы за судьбу галактики.

Доп. информация: Формат 3D: Анаглиф (Дюбуа)



Качество: BDRip 1080p
Формат: MKV
Видео кодек: H.264
Аудио кодек: AC3
Видео: x264, 1920 x 1080 (16:9), 8030 kbps, 23,976 fps, ( 0.162 bpp)
Аудио#1: Русский / AC3 / 48 KHz / 5.1 ch / 640 Kbps
Аудио#2: Украинский / AC3 / 48 KHz / 5.1 ch / 448 Kbps
Аудио#3: Английский / AC3 / 48 KHz / 5.1 ch / 640 Kbps



скриншот   скриншот   скриншот   скриншот   скриншот   скриншот  
Общее
Уникальный идентификатор : 237340497021397286040359295160202768819 (0xB28E1DF536E77287AA08888C3CC731B3)
Полное имя : E:\Guardians.Of.TheGalaxy.3D.(Anaglyph_Dubois).mkv
Формат : Matroska
Версия формата : Version 4 / Version 2
Размер файла : 8,24 Гбайт
Продолжительность : 2 ч. 1 м.
Общий поток : 9736 Кбит/сек
Название фильма : Стражи Галактики / Guardians of the Galaxy (2014) BDRip 1080p | 3D-Video| Anaglyph_Dubois (CROP)
Дата кодирования : UTC 2015-01-13 06:28:23
Программа кодирования : mkvmerge v6.2.0 ('Promised Land') built on Apr 28 2013 12:22:01
Библиотека кодирования : libebml v1.3.0 + libmatroska v1.4.0

Видео
Идентификатор : 1
Формат : AVC
Формат/Информация : Advanced Video Codec
Профиль формата : High@L4.1
MultiView_Count : 2
MultiView_Layout : Anaglyph (cyan/red)
Параметр CABAC формата : Да
Параметр ReFrames формата : 4 кадра
Идентификатор кодека : V_MPEG4/ISO/AVC
Продолжительность : 2 ч. 1 м.
Битрейт : 8030 Кбит/сек
Ширина : 1920 пикселей
Высота : 1080 пикселей
Соотношение сторон : 16:9
Режим частоты кадров : Постоянный
Частота кадров : 23,976 кадра/сек
Цветовое пространство : YUV
Субдискретизация насыщенности : 4:2:0
Битовая глубина : 8 бит
Тип развёртки : Прогрессивная
Бит/(Пиксели*Кадры) : 0.162
Размер потока : 6,61 Гбайт (80%)
Заголовок : Guardians of the Galaxy (2014) BDRip 1080p 3D (Anaglyph_Dubois)(CROP).mkv
Библиотека кодирования : x264 core 130 r2273 b3065e6
Настройки программы : cabac=1 / ref=4 / deblock=1:-3:-3 / analyse=0x3:0x113 / me=umh / subme=9 / psy=1 / psy_rd=1.00:0.00 / mixed_ref=1 / me_range=16 / chroma_me=1 / trellis=2 / 8x8dct=1 / cqm=0 / deadzone=21,11 / fast_pskip=1 / chroma_qp_offset=-2 / threads=3 / lookahead_threads=1 / sliced_threads=0 / nr=0 / decimate=1 / interlaced=0 / bluray_compat=0 / constrained_intra=0 / bframes=4 / b_pyramid=2 / b_adapt=2 / b_bias=0 / direct=2 / weightb=1 / open_gop=0 / weightp=2 / keyint=250 / keyint_min=23 / scenecut=40 / intra_refresh=0 / rc_lookahead=50 / rc=2pass / mbtree=1 / bitrate=8030 / ratetol=1.0 / qcomp=0.60 / qpmin=0 / qpmax=69 / qpstep=4 / cplxblur=20.0 / qblur=0.5 / ip_ratio=1.40 / aq=1:1.00
Язык : English
Default : Да
Forced : Нет

Аудио #1
Идентификатор : 2
Формат : AC-3
Формат/Информация : Audio Coding 3
Расширение режима : CM (complete main)
Параметр Endianness формата : Big
Идентификатор кодека : A_AC3
Продолжительность : 2 ч. 1 м.
Вид битрейта : Постоянный
Битрейт : 640 Кбит/сек
Каналы : 6 каналов
Расположение каналов : Front: L C R, Side: L R, LFE
Частота : 48,0 КГц
Битовая глубина : 16 бит
Метод сжатия : С потерями
Размер потока : 555 Мбайт (7%)
Заголовок : AC3 / 5.1 / 48 kHz / 640 kbps
Язык : Russian
Default : Да
Forced : Нет

Аудио #2
Идентификатор : 3
Формат : AC-3
Формат/Информация : Audio Coding 3
Расширение режима : CM (complete main)
Параметр Endianness формата : Big
Идентификатор кодека : A_AC3
Продолжительность : 2 ч. 1 м.
Вид битрейта : Постоянный
Битрейт : 448 Кбит/сек
Каналы : 6 каналов
Расположение каналов : Front: L C R, Side: L R, LFE
Частота : 48,0 КГц
Битовая глубина : 16 бит
Метод сжатия : С потерями
Размер потока : 388 Мбайт (5%)
Заголовок : AC3 / 5.1 / 48 kHz / 448 kbps
Язык : Ukrainian
Default : Нет
Forced : Нет

Аудио #3
Идентификатор : 4
Формат : AC-3
Формат/Информация : Audio Coding 3
Расширение режима : CM (complete main)
Параметр Endianness формата : Big
Идентификатор кодека : A_AC3
Продолжительность : 2 ч. 1 м.
Вид битрейта : Постоянный
Битрейт : 640 Кбит/сек
Каналы : 6 каналов
Расположение каналов : Front: L C R, Side: L R, LFE
Частота : 48,0 КГц
Битовая глубина : 16 бит
Метод сжатия : С потерями
Размер потока : 555 Мбайт (7%)
Заголовок : AC3 / 5.1 / 48 kHz / 640 kbps
Язык : English
Default : Нет
Forced : Нет

pb.wtf



Скачать Стражи Галактики через торрент https://pic.kartinco.top/images/8/5guqq.jpg Скачать фильм Стражи Галактики через торрент бесплантно в хорошем качестве Описание: Отважному путешественнику Питеру Квиллу попадает в руки таинственный артефакт, принадлежащий могущественному и безжалостному ... 9.3 10 6
Торрент: Зарегистрирован [2015-01-13 13:56] · скачан: 291 раз
Статус: √ проверено
Размер: 8.24 GB
Как cкачать? Как скачать Стражи Галактики через торрент | UTorrent

% Раздел Тема Автор DL S | L
3D Фильмы [ 8.54 GB ] Стражи Галактики. Часть 2 в 3D / Guardians of the Galaxy Vol. 2 in 3D [2017 BDRip 1080p ] Анаглиф от R.G. HD-Films slaventi-69 Скачать
1 | 0
T Релизы по Парсеру [Игры, Сериалы и Фильмы и другое...] [ 2.37 GB ] Стражи Галактики / Guardians of the Galaxy [2014 HDRip-AVC] [IMAX Version] + [AVO] killermax2013 Скачать
1 | 0
Ultra HD (UHD: 2K, 4K, 8K) — видео сверхвысокой чёткости [ 59.14 GB ] Стражи Галактики / Guardians of the Galaxy [2014 UHD Blu-Ray 2160p] DUB [] bober100 Скачать
1 | 0
Ultra HD (UHD: 2K, 4K, 8K) — видео сверхвысокой чёткости [ 77.35 GB ] Стражи Галактики / Guardians of the Galaxy [2014 UHD BDRemux 2160p] 2xDUB [] +MVO+5xAVO bober100 Скачать
2 | 0
3D Фильмы [ 13.2 GB ] Стражи Галактики. Часть 2 3Д / Guardians of the Galaxy. Vol. 2 3D [2017 BDRip 1080p ] [Half OverUnder] DUB [] bober100 Скачать
1 | 0
Ultra HD (UHD: 2K, 4K, 8K) — видео сверхвысокой чёткости [ 34.29 GB ] Стражи Галактики. Часть 2 / Guardians of the Galaxy Vol. 2 [2017 UHD BDRip 2160p] [SDR] DUB [rus ukr] [] sheker187 Скачать
1 | 0
Ultra HD (UHD: 2K, 4K, 8K) — видео сверхвысокой чёткости [ 11.7 GB ] Стражи Галактики. Часть 2 / Guardians of the Galaxy Vol. 2 [2017 UHD BDRip 2160p] [rus ukr] [] sheker187 Скачать
2 | 0

28-11-2019 20:33  

Отключить всю рекламу на сайте

13-09-2015 15:59 Стражи Галактики Скачать торрент  

ну и где раздающие ?pb.wtf



    Дорогой пользователь! Огромная просьба, поблагодарите релизера, оцените раздачу и оставьте свои комментарий, если Вы скачали Стражи Галактики через торрент бесплатно! Внесите свою лепту в развитие PiratBit!
    Комментировать посты могут только пользователи прошедшие не сложную регистрацию
    Показать сообщения:    

    Стражи Галактики через торрент
    Скачать бесплатно Стражи Галактики
    Стражи Галактики скачать торрент
    Стражи Галактики смотреть онлайн
    Cкачать фильм Стражи Галактики бесплатно
    Стражи Галактики скачать торрент в хорошем качестве
    Стражи Галактики смотреть онлайн бесплатно в хорошем качестве


    Вы не можете начинать темы
    Вы не можете отвечать на сообщения
    Вы не можете редактировать свои сообщения
    Вы не можете удалять свои сообщения
    Вы не можете голосовать в опросах
    Вы не можете прикреплять файлы к сообщениям
    Вы можете скачивать файлы