Присоединяйтесь к нам в Telegram!, здесь всегда актуальный адрес сайта, оперативная поддержка и многое другое!!

>

5.9

iTunes

7.4

iTunes

9.4

1 сезон

1

7.4

2 сезон

7.2

iTunes

7.3

1 сезон

13

6.1

iTunes

8.3

GOG

30

ULTIMATE

pack

9.9

Лицензия

ВАЖНО

ИГРА 18+

pack

7.3

RePack

MK11

7.7

RePack

jed

7.8

RePack

fifa19

8.5

RePack

RDR2

RePack

NEED FOR SPEED™ PAYBACK

5 сезон

9 сезон

Бесстыжие 9 сезон

Все сериалы

все сериалы на PB.wtf

RePack

FAR CRY 5

Anonymous, доброе утро, мы катастрофически не успеваем собрать деньги на оплату серверов, помогите нам пожалуйста 5,10,15р., для нас важна любая помощь . В качестве благодарности мы отключим Вам всю рекламу на сайте (укажите свой ник в строку Ваше имя)!

×
  
Magnet ссылка

25 Самых сексуальных видеоклипов / The Most Sexy Clips (VA) [2014 г., Dance, Pop, Trance, House, Rap, WEB-DLRip 720p] pb.wtf

25 Самых сексуальных видеоклипов через торрент pb.wtf

Раздают: 1 [ 0 KB/s ]
Размер: 1.56 GB | Добавлен: 6 лет 10 мес. назад | Торрент скачан:689 раз
Смотреть онлайн 25 Самых сексуальных видеоклипов | Скачать    Ребята, помогите собрать деньги на оплату серверов!!!

14-01-2015 05:48 25 Самых сексуальных видеоклипов Скачать торрент  

25 Самых сексуальных видеоклипов / The Most Sexy Clips
Год выпуска: 2014
Жанр: Dance, Pop, Trance, House, Rap
Продолжительность: 01:33:33

Режиссер: VA
Качество: WEB-DLRip 720p
Формат: MPEG-4
Видео кодек: AVC
Аудио кодек: AAC
Видео: 1280x720 (16:9), 25.000 fps, 2 889 Kbps (0.125 bit/pixel)
Аудио#1: 44.1 KHz, 2 ch, 192 Kbps, VBR
001 9euro 9 EURO OFFICIAL VIDEO CLIP LEGALIZE SеX IN THE NIGHTCLUB CLIP OFFICIAL
002 Ady Amar si Liviu Guta - Ti-e cald lаnga mine ( Video oficial ) +18
003 Anca - You Keep Me Hangin On Official Video HD 1080p
004 Corenell vs. The Lisa Marie Experience - Keep On Jumpin' (Corenell Extended Mix)
005 Crystal Hefner - Call The Cops
006 Debora & DJ Teddy Georgo - Chupka, Molya [HD]
007 Die Atzen - Hasta La Atze (Official Video HD)
008 DJ Jean Saxy lady HD (Directors cut)
009 Fedde Le Grand - 'Put Your Hands Up For Dеtroit' (Official Video)
010 Gage - Put It Yasso (Expicit) - Official Music Video -
011 George Michael ~ Freedom 90
012 IONUT STURZEA si DAN KIRICA - Misca fata beton (VIDEO OFICIAL - MANELE 2014)
013 ISABELA - Yo soy Isabela
014 Johnny Rain - Jericho (Official Music Video)
015 KK HOLLIDAY - WEH DI RUBBA DEH (OFFICIAL VIDEO) NSFW
016 KRUM - NAY - DOBRATA - Крум - Най - добрата
017 Madonna Justify My Love (MDNA Tour Interlude) HD
018 MC Masu - Haide , haide (VIDEOCLIP HD 2013)
019 Mental Theo - Sunburn (Official Video)
020 Miley Cyrus - Wrecking Ball
021 Nicky Jam - Chambonea (HD)
022 Puy Too Hot - Dirt Nasty [Official Music Video]
023 Rock Solid Mafia - Shаke That аss
024 Something Really Bad ( )
025 Фактор-2 - Сиськи (Официальный клип 2013)
скриншот   скриншот   скриншот   скриншот   скриншот   скриншот   скриншот   скриншот  

Общее
Полное имя : I:\25 Самых сексуальных видеоклипов (2014) 720p by DJ Najim Hassas\001 9euro 9 EURO OFFICIAL VIDEO CLIP LEGALIZE SEX IN THE NIGHTCLUB CLIP OFFICIAL by DJ Najim Hassas.mp4
Формат : MPEG-4
Профиль формата : Base Media / Version 2
Идентификатор кодека : mp42
Размер файла : 78,4 Мбайт
Продолжительность : 3 м. 33 с.
Режим общего битрейта : Переменный
Общий поток : 3083 Кбит/сек
Дата кодирования : UTC 2014-01-18 15:21:52
Дата пометки : UTC 2014-01-18 15:21:52
gsst : 0
gstd : 213251
gssd : B4A7D6E6AMH1391364015530763
gshh : r9---sn-n8v7sn7l.googlevideo.com

Видео
Идентификатор : 1
Формат : AVC
Формат/Информация : Advanced Video Codec
Профиль формата : High@L3.1
Параметр CABAC формата : Да
Параметр ReFrames формата : 1 кадр
Параметр GOP формата : M=1, N=60
Идентификатор кодека : avc1
Идентификатор кодека/Информация : Advanced Video Coding
Продолжительность : 3 м. 33 с.
Битрейт : 2889 Кбит/сек
Максимальный битрейт : 5093 Кбит/сек
Ширина : 1280 пикселей
Высота : 720 пикселей
Соотношение сторон : 16:9
Режим частоты кадров : Постоянный
Частота кадров : 25,000 кадров/сек
Цветовое пространство : YUV
Субдискретизация насыщенности : 4:2:0
Битовая глубина : 8 бит
Тип развёртки : Прогрессивная
Бит/(Пиксели*Кадры) : 0.125
Размер потока : 73,4 Мбайт (94%)
Дата пометки : UTC 2014-01-18 15:21:54

Аудио
Идентификатор : 2
Формат : AAC
Формат/Информация : Advanced Audio Codec
Профиль формата : LC
Идентификатор кодека : 40
Продолжительность : 3 м. 33 с.
Вид битрейта : Переменный
Битрейт : 192 Кбит/сек
Максимальный битрейт : 201 Кбит/сек
Каналы : 2 канала
Расположение каналов : Front: L R
Частота : 44,1 КГц
Метод сжатия : С потерями
Размер потока : 4,88 Мбайт (6%)
Заголовок : IsoMedia File Produced by Google, 5-11-2011
Дата кодирования : UTC 2014-01-18 15:21:53
Дата пометки : UTC 2014-01-18 15:21:54

pb.wtf



Скачать 25 Самых сексуальных видеоклипов через торрент https://pic1.kartinco.top/images/81/wyq2n.jpg Скачать, смотреть онлайн 25 Самых сексуальных видеоклипов бесплантно в хорошем качестве Треклист001 9euro 9 EURO OFFICIAL VIDEO CLIP LEGALIZE SеX IN THE NIGHTCLUB CLIP OFFICIAL 002 Ady Amar si Liviu Guta - Ti-e cald lаnga ... 9.1 10 24
Info! Серебряная раздача, засчитывается только 50% скачанного.
Торрент: Зарегистрирован [2015-01-14 05:48] · скачан: 689 раз
Статус: √ проверено
Размер: 1.56 GB
Как cкачать? Как скачать 25 Самых сексуальных видеоклипов через торрент | UTorrent

28-11-2019 20:33  

Отключить всю рекламу на сайте

14-01-2015 07:38 25 Самых сексуальных видеоклипов Скачать торрент  

25 клипов а скрины только с одного...pb.wtf



    Дорогой пользователь! Огромная просьба, поблагодарите релизера, оцените раздачу и оставьте свои комментарий, если Вы скачали 25 Самых сексуальных видеоклипов через торрент бесплатно!
    Комментировать посты могут только пользователи прошедшие не сложную регистрацию
    Показать сообщения:    

    25 Самых сексуальных видеоклипов через торрент
    Скачать бесплатно 25 Самых сексуальных видеоклипов
    25 Самых сексуальных видеоклипов скачать торрент
    25 Самых сексуальных видеоклипов смотреть онлайн
    Cкачать фильм 25 Самых сексуальных видеоклипов бесплатно
    25 Самых сексуальных видеоклипов скачать торрент в хорошем качестве
    25 Самых сексуальных видеоклипов смотреть онлайн бесплатно в хорошем качестве


    Вы не можете начинать темы
    Вы не можете отвечать на сообщения
    Вы не можете редактировать свои сообщения
    Вы не можете удалять свои сообщения
    Вы не можете голосовать в опросах
    Вы не можете прикреплять файлы к сообщениям
    Вы можете скачивать файлы