Присоединяйтесь к нам в Telegram!, здесь всегда актуальный адрес сайта, оперативная поддержка и многое другое!!

>

5.9

iTunes

7.4

iTunes

9.4

1 сезон

1

7.4

2 сезон

7.2

iTunes

7.3

1 сезон

13

6.1

iTunes

8.3

GOG

30

ULTIMATE

pack

9.9

Лицензия

ВАЖНО

ИГРА 18+

pack

7.3

RePack

MK11

7.7

RePack

jed

7.8

RePack

fifa19

8.5

RePack

RDR2

RePack

NEED FOR SPEED™ PAYBACK

5 сезон

9 сезон

Бесстыжие 9 сезон

Все сериалы

все сериалы на PB.wtf

RePack

FAR CRY 5

Anonymous, доброй ночи, мы катастрофически не успеваем собрать деньги на оплату серверов, помогите нам пожалуйста 5,10,15р., для нас важна любая помощь . В качестве благодарности мы отключим Вам всю рекламу на сайте (укажите свой ник в строку Ваше имя)!

×
  
Magnet ссылка

15 Самых сексуальных клипов года VH1 / The 15 Sexiest Videos Of 2014 by VH1 [2014 г., Dance, Pop, Trance, House, Rap, WEB-DLRip 1080p] pb.wtf

15 Самых сексуальных клипов года VH1 через торрент pb.wtf

Раздают: 1 [ 0 KB/s ]
Размер: 1.3 GB | Добавлен: 6 лет 10 мес. назад | Торрент скачан:972 раза
Смотреть онлайн 15 Самых сексуальных клипов года VH1 | Скачать    Ребята, помогите собрать деньги на оплату серверов!!!

14-01-2015 10:30 15 Самых сексуальных клипов года VH1 Скачать торрент  

15 Самых сексуальных клипов года VH1 / The 15 Sexiest Videos Of 2014 by VH1
Год выпуска: 2014
Жанр: Dance, Pop, Trance, House, Rap
Продолжительность: 01:03:23
Содержание:Популярный американский музыкальный телеканал VH1 выбрал самые сексуальные клипы года. Первое место заняла работа Дженнифер Лопес "Booty", в записи которой приняла участие популярная хип-хоп исполнительница Игги Азалия. Второе место также за девчачьим дуэтом – ролик Шакиры и Рианны "Can’t Remember to Forget You". Кроме того, в рейтинг вошла провокационная экранизация сингла Ники Минаж "Anaconda", а видео Леди Гаги "G.U.Y." стало шестым.

Качество: WEB-DLRip 1080p
Формат: MPEG-4
Видео кодек: AVC
Аудио кодек: AAC
Видео: 1920x1080 (16:9), 23.976 fps, 2829 Кбит/сек (0.036 bit/pixel)
Аудио#1: 44.1 KHz, 2 ch, 126 Kbps, CBR
01. Jennifer Lopez (ft. Iggy Azalea) - Booty
02. Shakira (ft. Rihanna) - Can't Remember To Forget You
03. Trey Songz - Na Na
04. Jennifer Lopez - First Love
05. Nicki Minaj - Anaconda
06. Lady Gaga - G.U.Y.
07. T.I. (ft. Iggy Azalea) - No Mediocre
08. Jennifer Lopez (ft. French Montana) - I Luh Ya PaPi
09. Jessie J, Ariana Grande, Nicki Minaj - Bang Bang
10. Calvin Harris - Summer
11. Jessie J (ft. 2 Chainz) - Burnin Up
12. Taylor Swift - Blank Space
13. Kid Ink (ft. Usher, Tinashe) - Body Language
14. Beyonce - 7/11
15. Ariana Grande (ft. The Weeknd) - Love Me Harder
скриншот   скриншот   скриншот   скриншот   скриншот   скриншот   скриншот   скриншот   скриншот   скриншот   скриншот  

Общее
Полное имя : I:\The 15 Sexiest Videos Of 2014 by VH1 1080р\01. Jennifer Lopez (ft. Iggy Azalea) - Booty.mp4
Формат : MPEG-4
Профиль формата : Base Media
Идентификатор кодека : isom
Размер файла : 90,6 Мбайт
Продолжительность : 4 м. 16 с.
Общий поток : 2960 Кбит/сек
Программа кодирования : Lavf55.33.100

Видео
Идентификатор : 1
Формат : AVC
Формат/Информация : Advanced Video Codec
Профиль формата : High@L4.0
Параметр CABAC формата : Да
Параметр ReFrames формата : 3 кадра
Идентификатор кодека : avc1
Идентификатор кодека/Информация : Advanced Video Coding
Продолжительность : 4 м. 16 с.
Битрейт : 2829 Кбит/сек
Ширина : 1920 пикселей
Высота : 1080 пикселей
Соотношение сторон : 16:9
Режим частоты кадров : Переменный
Частота кадров : 23,976 кадра/сек
Минимальная частота кадров : 23,974 кадра/сек
Максимальная частота кадров : 23,981 кадра/сек
Цветовое пространство : YUV
Субдискретизация насыщенности : 4:2:0
Битовая глубина : 8 бит
Тип развёртки : Прогрессивная
Бит/(Пиксели*Кадры) : 0.057
Размер потока : 86,6 Мбайт (96%)

Аудио
Идентификатор : 2
Формат : AAC
Формат/Информация : Advanced Audio Codec
Профиль формата : LC
Идентификатор кодека : 40
Продолжительность : 4 м. 16 с.
Вид битрейта : Постоянный
Битрейт : 126 Кбит/сек
Каналы : 2 канала
Расположение каналов : Front: L R
Частота : 44,1 КГц
Метод сжатия : С потерями
Размер потока : 3,85 Мбайт (4%)

pb.wtf



Скачать 15 Самых сексуальных клипов года VH1 через торрент https://pic1.kartinco.top/images/81/51oam.jpg Скачать, смотреть онлайн 15 Самых сексуальных клипов года VH1 бесплантно в хорошем качестве Треклист Jennifer Lopez (ft. Iggy Azalea) - Booty Shakira (ft. Rihanna) - Can't Remember To Forget You Trey Songz - Na Na ... 9.6 10 30
Info! Серебряная раздача, засчитывается только 50% скачанного.
Торрент: Зарегистрирован [2015-01-14 10:30] · скачан: 972 раз
Статус: √ проверено
Размер: 1.3 GB
Как cкачать? Как скачать 15 Самых сексуальных клипов года VH1 через торрент | UTorrent

28-11-2019 20:33  

Отключить всю рекламу на сайте

14-01-2015 11:53 15 Самых сексуальных клипов года VH1 Скачать торрент  

С Никки Минаж скриншот показывающий её реал ass :smok:pb.wtf



25-02-2016 07:39 15 Самых сексуальных клипов года VH1 Скачать торрент  

СКОРОСТИ ПОЖАЛУЙСТА!!!!pb.wtf



    Дорогой пользователь! Огромная просьба, поблагодарите релизера, оцените раздачу и оставьте свои комментарий, если Вы скачали 15 Самых сексуальных клипов года VH1 через торрент бесплатно!
    Комментировать посты могут только пользователи прошедшие не сложную регистрацию
    Показать сообщения:    

    15 Самых сексуальных клипов года VH1 через торрент
    Скачать бесплатно 15 Самых сексуальных клипов года VH1
    15 Самых сексуальных клипов года VH1 скачать торрент
    15 Самых сексуальных клипов года VH1 смотреть онлайн
    Cкачать фильм 15 Самых сексуальных клипов года VH1 бесплатно
    15 Самых сексуальных клипов года VH1 скачать торрент в хорошем качестве
    15 Самых сексуальных клипов года VH1 смотреть онлайн бесплатно в хорошем качестве


    Вы не можете начинать темы
    Вы не можете отвечать на сообщения
    Вы не можете редактировать свои сообщения
    Вы не можете удалять свои сообщения
    Вы не можете голосовать в опросах
    Вы не можете прикреплять файлы к сообщениям
    Вы можете скачивать файлы